Присоединяйтесь к нам в Telegram!, здесь всегда актуальный адрес сайта, оперативная поддержка и многое другое!!

>

5.9

iTunes

7.4

iTunes

9.4

1 сезон

1

7.4

2 сезон

7.2

iTunes

7.3

1 сезон

13

6.1

iTunes

8.3

GOG

30

ULTIMATE

pack

9.9

Лицензия

ВАЖНО

ИГРА 18+

pack

7.3

RePack

MK11

7.7

RePack

jed

7.8

RePack

fifa19

8.5

RePack

RDR2

RePack

NEED FOR SPEED™ PAYBACK

5 сезон

9 сезон

Бесстыжие 9 сезон

Все сериалы

все сериалы на PB.wtf

RePack

FAR CRY 5

Anonymous, доброе утро, мы катастрофически не успеваем собрать деньги на оплату серверов, помогите нам пожалуйста 5,10,15р., для нас важна любая помощь . В качестве благодарности мы отключим Вам всю рекламу на сайте (укажите свой ник в строку Ваше имя)!

×
  
Magnet ссылка

Любимые ВИА СССР & Золотые хиты 70х- 80х ( made in USSR ) [1980 г., Эстрада, Ретро, TVRip] pb.wtf

Любимые ВИА СССР & Золотые хиты 70х- 80х через торрент pb.wtf

Размер: 1.34 GB | Добавлен: 7 лет 11 мес. назад | Торрент скачан:271 раз
Смотреть онлайн Любимые ВИА СССР & Золотые хиты 70х- 80х | Скачать    Ребята, помогите собрать деньги на оплату серверов!!!

15-12-2013 17:05 Любимые ВИА СССР & Золотые хиты 70х- 80х Скачать торрент  

Любимые ВИА СССР & Золотые хиты 70х- 80х ( made in USSR )
Год выпуска: 1980
Страна: СССР
Жанр: Эстрада, Ретро
Продолжительность: 01:52:48
Перевод: Оригинал

В ролях: "Синяя птица", "Здравствуй песня", "Самоцветы", "Пламя"

Описание: Созвездие легендарных артистов популярных ансамблей 70-80-х годов...
"Синяя птица":
1 Урок сольфеджио
2 Не узнаешь
3 Хочешь я стану дождиком......
4 Купи мне шарик
5 Напиши мне письмо
6 Мамина пластинка
7 От сердца к сердцу....

"Здравствуй песня":
1 Не обещай
2 А любовь рядом была
3 Девчонка из квартиры 45....
4 Синяя песня
5 Я помню все
6 Пусть завтра...

"Самоцветы":
1 Мой адрес Советский Союз
2 За того парня
3 Налетели дожди
4 Верба
5 Волшебная бойкивчонка
6 Туман
7 Увезу тебя я в тундру....

"Пламя":
1 У деревни Крюково
2 Не повторяется такое никогда
3 На дальней станции сойду....
4 Синие дожди
5 В шахтерском общежитии
6 Идет солдат по городу....
Качество: TVRip
Формат: AVI
Видео кодек: DivX 3
Аудио кодек: MP3
Видео: DivX 3 720x576, 25.00fps, 1 500 Kbps
Аудио: MPEG Audio Layer 3, 44100Hz stereo, 192kbps
Релиз от: Киноклуб "Феникс"





General
Complete name : E:виа 70 видеоSovetskie.VIA.(1970-1980).1980.DivX.TVRip.avi
Format : AVI
Format/Info : Audio Video Interleave
Format profile : OpenDML
File size : 1.34 GiB
Duration : 1h 52mn
Overall bit rate : 1 707 Kbps
Writing application : Lavf50.6.0

Video
ID : 0
Format : MPEG-4 Visual
Codec ID : DIV3
Codec ID/Hint : DivX 3 Low
Duration : 1h 52mn
Bit rate : 1 500 Kbps
Width : 720 pixels
Height : 576 pixels
Display aspect ratio : 5:4
Frame rate : 25.000 fps
Standard : PAL
Color space : YUV
Chroma subsampling : 4:2:0
Bit depth : 8 bits
Compression mode : Lossy
Bits/(Pixel*Frame) : 0.145
Stream size : 1.18 GiB (88%)

Audio
ID : 1
Format : MPEG Audio
Format version : Version 1
Format profile : Layer 3
Mode : Joint stereo
Mode extension : MS Stereo
Codec ID : 55
Codec ID/Hint : MP3
Duration : 1h 52mn
Bit rate mode : Constant
Bit rate : 192 Kbps
Channel(s) : 2 channels
Sampling rate : 44.1 KHz
Compression mode : Lossy
Stream size : 41.3 MiB (3%)
Alignment : Aligned on interleaves
Interleave, duration : 98 ms (2.45 video frames)
Interleave, preload duration : 26 ms

pb.wtf



Скачать Любимые ВИА СССР & Золотые хиты 70х- 80х через торрент https://pic1.kartinco.top/images/61/4zraj.jpg Скачать, смотреть онлайн Любимые ВИА СССР & Золотые хиты 70х- 80х бесплантно в хорошем качестве Описание: Созвездие легендарных артистов популярных ансамблей 70-80-х годов..."Синяя птица":1 Урок сольфеджио2 Не узнаешь3 Хочешь я стану ... 10 10 11
Info! Золотая раздача, скачанное не засчитывается.
Торрент: Зарегистрирован [2013-12-15 17:05] · скачан: 271 раз
Статус: √ проверено
Размер: 1.34 GB
Как cкачать? Как скачать Любимые ВИА СССР & Золотые хиты 70х- 80х через торрент | UTorrent

28-11-2019 20:33  

Отключить всю рекламу на сайте

    Дорогой пользователь! Огромная просьба, поблагодарите релизера, оцените раздачу и оставьте свои комментарий, если Вы скачали Любимые ВИА СССР & Золотые хиты 70х- 80х через торрент бесплатно!
    Комментировать посты могут только пользователи прошедшие не сложную регистрацию
    Показать сообщения:    

    Любимые ВИА СССР & Золотые хиты 70х- 80х через торрент
    Скачать бесплатно Любимые ВИА СССР & Золотые хиты 70х- 80х
    Любимые ВИА СССР & Золотые хиты 70х- 80х скачать торрент
    Любимые ВИА СССР & Золотые хиты 70х- 80х смотреть онлайн
    Cкачать фильм Любимые ВИА СССР & Золотые хиты 70х- 80х бесплатно
    Любимые ВИА СССР & Золотые хиты 70х- 80х скачать торрент в хорошем качестве
    Любимые ВИА СССР & Золотые хиты 70х- 80х смотреть онлайн бесплатно в хорошем качестве


    Вы не можете начинать темы
    Вы не можете отвечать на сообщения
    Вы не можете редактировать свои сообщения
    Вы не можете удалять свои сообщения
    Вы не можете голосовать в опросах
    Вы не можете прикреплять файлы к сообщениям
    Вы можете скачивать файлы