Ссылка на приватное зеркало нашего сайта всего за 1$. Внимание количество ограничено!!!

2 сезон

iTunes

1 сезон

1

2 сезон

2 сезон

iTunes

1 сезон

RePack

30

Ultimate

ВАЖНО

ИГРА 18+

pack

RePack

MK11
pack

Забери бонус

RePack

jed

!!Акция!!

Alien_Rage

RePack

fifa19

RePack

Assassins Creed: Odyssey

RePack

NEED FOR SPEED™ PAYBACK

4 сезон

9 сезон

Бесстыжие 9 сезон

Все сериалы

все сериалы на PB.wtf

RePack

FAR CRY 5
  

Индюки: Назад в будущее / Free Birds (Джимми Хейуорд / Jimmy Hayward) [2013, Мультфильм, комедия, приключения, BDRip 1080p, DUB] [Лицензия] pb.wtf

Индюки: Назад в будущее через торрент pb.wtf

Размер: 7.09 GB | Добавлен: 6 лет 11 мес. назад | Торрент скачан:976 раз
Скачать  

15-12-2013 17:51 Индюки: Назад в будущее Скачать торрент  

Индюки: Назад в будущее / Free Birds

Год выпуска : 2013
Страна: США
Жанр: Мультфильм, комедия, приключения, семейный

Продолжительность: 01:31:02
Перевод: Дубляж [Лицензия]
Субтитры: Нет
Режиссер: Джимми Хейуорд / Jimmy Hayward
В ролях: Оуэн Уилсон (Reggie, озвучка), Вуди Харрельсон (Jake, озвучка), Эми Полер (Jenny, озвучка), Джордж Такей (S.T.E.V.E., озвучка), Колм Мини (Myles Standish, озвучка), Кит Дэвид (Chief Broadbeak, озвучка), Дэн Фоглер (Governor Bradford, озвучка), Джимми Хейуорд (Ranger, Leatherbeak, President, Hazmats, Additional Voice Talent, озвучка), Кейтлин Мехер (President's Daughter, озвучка), Карлос Аласраки (Amos, озвучка), Джефф Бьянкалана (General Sagan, Hazmats, Additional Voice Talent, озвучка), Дэнни Кэри (Danny, озвучка)
Описание: Индюк Реджи вырос на обычной ферме, его жизнь была скучной и однообразной, как и у других птиц. Однако он отличался от сородичей тем, что умел пользоваться смекалкой и понимал, зачем его кормят. Поедание индейки на День Благодарения - знаменитая американская традиция, которая определяет смысл существования всех индюков на этой ферме. Однажды у Реджи появилась возможность кардинально изменить ситуацию: вместе с безумным приятелем Джейком они отправляются в необычное путешествие на машине времени. Основная задача - вернуться во времена, когда зарождалась традиция приготовления индейки на праздник, и изменить ход истории.
Рейтинг

imdb.com: 5.10 (2392)
MPAA: PG - Рекомендуется присутствие родителей
Качество: BDRip 1080p
Формат: MKV
Видео кодек: AVC
Аудио кодек: AC3/DTS
Видео: AVC, 1920x1034 (1.857), 9000 kbps, 23,976 fps, 0,189 bpp
Аудио №1: русский / AC3 / 5.1 / 48 kHz / 640 kbps / 16 bit
Аудио №2: русский / DTS / 5.1 / 48 kHz / 1510 kbps / 16 bit

General
Unique ID : 216707701489870856774204797421663468555 (0xA30862990CF60B1B8CAA876F8E82BC0B)
Complete name : H:Indyuki.Nazad.v.budushcheye.2013.D.BDRip.1080p.mkv
Format : Matroska
Format version : Version 2
File size : 7.09 GiB
Duration : 1h 31mn
Overall bit rate : 11.1 Mbps
Movie name : Indyuki.Nazad.v.budushcheye.2013.D.BDRip.1080p.
Encoded date : UTC 2013-12-14 23:05:37
Writing application : mkvmerge v2.9.9 ('Tutu') built on Nov 25 2009 21:13:32
Writing library : libebml v0.7.9 + libmatroska v0.8.1

Video
ID : 1
Format : AVC
Format/Info : Advanced Video Codec
Format profile : High@L4.1
Format settings, CABAC : Yes
Format settings, ReFrames : 4 frames
Codec ID : V_MPEG4/ISO/AVC
Duration : 1h 31mn
Bit rate : 9 000 Kbps
Width : 1 920 pixels
Height : 1 034 pixels
Display aspect ratio : 1.857
Frame rate : 23.976 fps
Color space : YUV
Chroma subsampling : 4:2:0
Bit depth : 8 bits
Scan type : Progressive
Bits/(Pixel*Frame) : 0.189
Stream size : 5.58 GiB (79%)
Writing library : x264 core 133 r2334 a3ac64b
Encoding settings : cabac=1 / ref=4 / deblock=1:-3:-3 / analyse=0x3:0x113 / me=umh / subme=9 / psy=1 / psy_rd=1.00:0.25 / mixed_ref=1 / me_range=24 / chroma_me=1 / trellis=1 / 8x8dct=1 / cqm=0 / deadzone=21,11 / fast_pskip=1 / chroma_qp_offset=-4 / threads=12 / lookahead_threads=1 / sliced_threads=0 / nr=0 / decimate=0 / interlaced=0 / bluray_compat=0 / constrained_intra=0 / bframes=7 / b_pyramid=0 / b_adapt=1 / b_bias=0 / direct=1 / weightb=1 / open_gop=0 / weightp=2 / keyint=240 / keyint_min=23 / scenecut=40 / intra_refresh=0 / rc_lookahead=40 / rc=2pass / mbtree=1 / bitrate=9000 / ratetol=1.0 / qcomp=0.70 / qpmin=0 / qpmax=69 / qpstep=4 / cplxblur=20.0 / qblur=0.5 / vbv_maxrate=62500 / vbv_bufsize=78125 / nal_hrd=none / ip_ratio=1.40 / aq=1:1.00
Language : English
Default : No
Forced : No

Audio #1
ID : 2
Format : AC-3
Format/Info : Audio Coding 3
Mode extension : CM (complete main)
Codec ID : A_AC3
Duration : 1h 31mn
Bit rate mode : Constant
Bit rate : 640 Kbps
Channel(s) : 6 channels
Channel positions : Front: L C R, Side: L R, LFE
Sampling rate : 48.0 KHz
Bit depth : 16 bits
Compression mode : Lossy
Stream size : 417 MiB (6%)
Title : AC3.640.Kbps (6ch) Russian (Дубляж)
Language : Russian
Default : Yes
Forced : No

Audio #2
ID : 3
Format : DTS
Format/Info : Digital Theater Systems
Codec ID : A_DTS
Duration : 1h 31mn
Bit rate mode : Constant
Bit rate : 1 510 Kbps
Channel(s) : 6 channels
Channel positions : Front: L C R, Side: L R, LFE
Sampling rate : 48.0 KHz
Bit depth : 16 bits
Compression mode : Lossy
Stream size : 983 MiB (14%)
Title : DTS.1509.Kbps (6ch) Russian (Дубляж Blu-ray RUS)
Language : Russian
Default : No
Forced : No

Menu
00:00:00.000 : en:Chapter 00
00:05:46.637 : en:Chapter 01
00:10:19.744 : en:Chapter 02
00:16:16.767 : en:Chapter 03
00:22:34.686 : en:Chapter 04
00:26:28.628 : en:Chapter 05
00:33:04.023 : en:Chapter 06
00:39:01.255 : en:Chapter 07
00:43:44.121 : en:Chapter 08
00:48:26.028 : en:Chapter 09
00:55:57.270 : en:Chapter 10
01:01:39.737 : en:Chapter 11
01:07:37.344 : en:Chapter 12
01:14:21.248 : en:Chapter 13
01:20:09.638 : en:Chapter 14
01:23:56.072 : en:Chapter 15
pb.wtf



Скачать Индюки: Назад в будущее через торрент http://i1.imageban.ru/out/2013/12/15/47781eee4345080299421b5354568e1f.png Скачать фильм Индюки: Назад в будущее через торрент бесплантно в хорошем качестве Описание: Индюк Реджи вырос на обычной ферме, его жизнь была скучной и однообразной, как и у других птиц. Однако он отличался от сородичей ... 9.8 10 20
Info! Золотая раздача, скачанное не засчитывается.
Торрент: Зарегистрирован [2013-12-15 17:51] · скачан: 976 раз
Статус: √ проверено
Размер: 7.09 GB
Как cкачать? Как скачать Индюки: Назад в будущее через торрент | qTorrent

% Раздел Тема Автор DL S | L
Иностранные мультфильмы [ 1.46 GB ] Индюки: Назад в будущее / Free Birds [2013 мультфильм HDRip ] MihailHD Скачать
1 | 0
Зарубежные Мультфильмы (BDRip 1080p, 720p, Blu-ray, BD-Remux) [ 20.29 GB ] Индюки: Назад в будущее / Free Birds [2013 Мультфильм BDRemux 1080p ] читерас Скачать
1 | 0
Иностранные мультфильмы [ 698 MB ] Индюки: Назад в будущее / Free Birds [2013 мультфильм DVDRip ] MIXX_ON Скачать
1 | 0
3D Мультфильмы [ 10.71 GB ] Индюки: Назад в будущее в 3Д / Free Birds 3D [2013 Мультфильм BDrip 1080p]Full OverUnder / Вертикальная стереопара serega768 Скачать
1 | 0
3D Мультфильмы [ 6.4 GB ] Индюки: Назад в будущее / Free Birds [2013 Мультфильм BDRip 1080p DUB] Half OverUnder / Вертикальная анаморфная стереопара лисяра Скачать
1 | 0
Зарубежные Мультфильмы (BDRip 1080p, 720p, Blu-ray, BD-Remux) [ 12.27 GB ] Индюки: Назад в будущее / Free Birds [2013 Мультфильм BDRemux DUB] [] лисяра Скачать
1 | 0
Иностранные мультфильмы [ 1.37 GB ] Индюки: Назад в будущее / Free Birds [2013 Мультфильм DVDRip ] Drakosha Скачать
1 | 0

28-11-2019 20:33  

Отключить всю рекламу на сайте

    Дорогой пользователь! Огромная просьба, поблагодарите релизера, оцените раздачу и оставьте свои комментарий, если Вы скачали Индюки: Назад в будущее через торрент бесплатно! Внесите свою лепту в развитие PiratBit!
    Комментировать посты могут только пользователи прошедшие не сложную регистрацию
    Показать сообщения:    

    Индюки: Назад в будущее через торрент
    Скачать бесплатно Индюки: Назад в будущее
    Индюки: Назад в будущее скачать торрент
    Индюки: Назад в будущее смотреть онлайн
    Cкачать фильм Индюки: Назад в будущее бесплатно
    Индюки: Назад в будущее скачать торрент в хорошем качестве
    Индюки: Назад в будущее смотреть онлайн бесплатно в хорошем качестве


    Вы не можете начинать темы
    Вы не можете отвечать на сообщения
    Вы не можете редактировать свои сообщения
    Вы не можете удалять свои сообщения
    Вы не можете голосовать в опросах
    Вы не можете прикреплять файлы к сообщениям
    Вы можете скачивать файлы