Ссылка на приватное зеркало нашего сайта всего за 1$. Внимание количество ограничено!!!

2 сезон

iTunes

1 сезон

1

iTunes

iTunes

iTunes

1 сезон

RePack

30

ИГРА 18+

pack

ВАЖНО

!!Акция!!

Alien_RageХит недели

RePack

MK11
pack

Забери бонус

RePack

jed

!!Акция!!

Alien_Rage

RePack

fifa19

RePack

Assassins Creed: Odyssey

RePack

NEED FOR SPEED™ PAYBACK

4 сезон

9 сезон

Бесстыжие 9 сезон

Все сериалы

все сериалы на PB.wtf

RePack

FAR CRY 5
  

Последний из Магикян / Сезон: 1 / Серии: 1-12 из 40 (Резо Гигинеишвили) [2013 г., Комедийный сериал, SatRip-AVC] pb.wtf

Последний из Магикян через торрент pb.wtf

Размер: 3.82 GB | Добавлен: 6 лет 10 мес. назад | Торрент скачан:364 раза
Скачать  

10-10-2013 20:54 Последний из Магикян Скачать торрент  


Последний из Магикян

«Комедия с акцентом»

  • Год выпуска:2013
  • Страна:Россия
  • Жанр:комедия
  • Продолжительность: 24 мин серия
  • Перевод:Не требуется

  • Субтитры: Нет
    • Режиссер:Резо Гигинеишвили

  • В ролях:Грант Тохатян, Анна Ардова, Андрей Бурковский, Элен Касьяник, Алина Гринберг, Луиза-Габриэла Бровина, Баймурат Аллабериев
    • Описание:
      Карену Магикяну почти 50 лет. Он - глава семьи и отец трех дочерей. В этом возрасте люди уже не меняются. Он давно сформулировал законы и правила, по которым живет, и нарушать ничего не собирается. Ему-то самому кажется, что за последние 10-15 лет он ничуть не изменился, ни капельки не постарел. Более того - он считает себя вполне современным человеком, хотя у него мобильный телефон с черно-белым экраном и нет электронной почты.
      Вот это, кстати, его раздражает особенно сильно - с чего все вокруг сходят с ума по этим гаджетам, айпэдам, айфонам. Почему младшая дочь, вернувшись из школы, сразу идет в интернет, а не поцеловать папу? «Общаться» - это же значит сидеть за столом, пить вино и разговаривать, а не пялиться в экран компьютера и портить себе глаза.
      Он не понимает современных отношений. Как у дочери может остаться ночевать парень, когда они не женаты? И его не волнуют уверения жены, что «сейчас все так делают». Пусть так делают все, но не в его семье! Он кавказец, у него есть принципы! Да, пусть наполовину кавказец (мама украинка) и пусть его дочери - всего на четверть кавказские женщины, потому что жена тоже русская - неважно! Это неправильно!
      Карен - «Последний из Магикян». И не только потому, что у него три дочери, а наследника в таком возрасте явно не предвидится. Он - представитель исчезающего вида людей, которые никогда не разговаривали по скайпу, для которых письмо - это исписанная буквами бумага в конверте, а самое главное - которые не прогибаются под меняющийся мир, потому что «сейчас так принято» и «ты живешь в 21 веке». Зрители помладше должны узнать в нем своих родителей, зрители постарше должны в нем узнать себя.

    • Качество:SATRip-AVC
    • Формат:MKV
    • Видео кодек: AVC
    • Аудио кодек:AC3
    • Видео: AVC, 720х400@720х432 (16:9), 1650 Kbps, 25 fps, Bits/(Pixel*Frame) : 0.212
    • Аудио: AC-3, 256 Kbps, 48.0 KHz, 2 ch

    скриншот   скриншот   скриншот   скриншот   скриншот  
    General
    Unique ID : 220979577209389309224386917085530471529 (0xA63F1E55010BB904BEDB64D98C32BC69)
    Complete name : G:КОМЕДИИПоследний из Магикян (DVBRip)Последний из Магикян - 01 серия.mkv
    Format : Matroska
    Format version : Version 2
    File size : 326 MiB
    Duration : 23mn 51s
    Overall bit rate : 1 908 Kbps
    Encoded date : UTC 2013-09-20 04:20:31
    Writing application : mkvmerge v3.3.0 ('Language') built on Mar 24 2010 14:59:24
    Writing library : libebml v0.8.0 + libmatroska v0.9.0
    Video #1
    ID : 1
    Format : AVC
    Format/Info : Advanced Video Codec
    Format profile : High@L3.1
    Format settings, CABAC : Yes
    Format settings, ReFrames : 10 frames
    Codec ID : V_MPEG4/ISO/AVC
    Duration : 23mn 51s
    Bit rate : 1 650 Kbps
    Width : 720 pixels
    Height : 432 pixels
    Display aspect ratio : 1.667
    Frame rate : 25.000 fps
    Color space : YUV
    Chroma subsampling : 4:2:0
    Bit depth : 8 bits
    Scan type : Progressive
    Bits/(Pixel*Frame) : 0.212
    Stream size : 275 MiB (85%)
    Writing library : x264 core 133 r2334 a3ac64b
    Encoding settings : cabac=1 / ref=10 / deblock=1:-3:-3 / analyse=0x3:0x133 / me=umh / subme=10 / psy=1 / psy_rd=1.00:0.15 / mixed_ref=1 / me_range=32 / chroma_me=1 / trellis=2 / 8x8dct=1 / cqm=0 / deadzone=21,11 / fast_pskip=1 / chroma_qp_offset=-6 / threads=6 / lookahead_threads=1 / sliced_threads=0 / nr=0 / decimate=1 / interlaced=0 / bluray_compat=0 / constrained_intra=0 / bframes=8 / b_pyramid=2 / b_adapt=2 / b_bias=0 / direct=3 / weightb=1 / open_gop=0 / weightp=2 / keyint=250 / keyint_min=25 / scenecut=40 / intra_refresh=0 / rc_lookahead=40 / rc=2pass / mbtree=1 / bitrate=1650 / ratetol=1.0 / qcomp=0.60 / qpmin=0 / qpmax=69 / qpstep=4 / cplxblur=20.0 / qblur=0.5 / vbv_maxrate=17500 / vbv_bufsize=17500 / nal_hrd=none / ip_ratio=1.40 / aq=1:1.00
    Default : Yes
    Forced : No
    Color primaries : BT.470-6 System B, BT.470-6 System G, BT.601-6 625, BT.1358 625, BT.1700 625 PAL, BT.1700 625 SECAM
    Transfer characteristics : BT.470-6 System B, BT.470-6 System G
    Matrix coefficients : BT.470-6 System B, BT.470-6 System G, BT.601-6 625, BT.1358 625, BT.1700 625 PAL, BT.1700 625 SECAM, IEC 61966-2-4 601
    Audio #2
    ID : 2
    Format : AC-3
    Format/Info : Audio Coding 3
    Mode extension : CM (complete main)
    Format settings, Endianness : Big
    Codec ID : A_AC3
    Duration : 23mn 51s
    Bit rate mode : Constant
    Bit rate : 256 Kbps
    Channel(s) : 2 channels
    Channel positions : Front: L R
    Sampling rate : 48.0 KHz
    Bit depth : 16 bits
    Compression mode : Lossy
    Stream size : 43.7 MiB (13%)
    Language : Russian
    Default : Yes
    Forced : No

    Внимание! Раздача ведётся путём добавления новых серий; при каждом добавлении создётся новый торрент. Чтобы начать докачку новой серии, пользователям необходимо сделать следующее:
    (1) остановить скачивание,
    (2) удалить старый торрент у себя из клиента (старые серии удалять не надо),
    (3) скачать новый торрент и запустить его у себя в клиенте вместо старого, при этом указать клиенту путь в старую папку куда и должно происходить скачивание новых серий.

    Ваш клиент при этом должен произвести хеширование (проверку) старой папки (если не производит сам - помогите ему сделать это), и будет докачивать только те серии которых у вас ещё нет. Старые серии при этом не удаляются, а продолжают раздаваться!

    Eсли вы уже удалили старые серии, то предотвратить повторную закачку старых серий можно, отжав галочку в соответсвующих местах при запуске нового торрента. По возможности, желательно не удалять старые серии как можно дольше чтобы релизёр не столько продолжал раздавать старые серии, а смог сконцентрироваться на новых.

    © Оформление by Vetal
    pb.wtf



  • Скачать Последний из Магикян через торрент http://i58.fastpic.ru/big/2013/0922/31/4683bcd4960801b02604b79f43d30631.png Скачать фильм Последний из Магикян через торрент бесплантно в хорошем качестве Описание:Карену Магикяну почти 50 лет. Он - глава семьи и отец трех дочерей. В этом возрасте люди уже не меняются. Он давно сформулировал ... 9.7 10 24
    Info! Золотая раздача, скачанное не засчитывается.
    Торрент: Зарегистрирован [2013-12-15 19:12] · скачан: 364 раз
    Статус: √ проверено
    Размер: 3.82 GB
    Как cкачать? Как скачать Последний из Магикян через торрент | qTorrent

    % Раздел Тема Автор DL S | L
    Наши сериалы [ 3.91 GB ] Последний из Магикян / Сезон: 3 / Серии 1-12 из 40 [2014 Россия SATRip) GEKADOL Скачать
    1 | 0

    28-11-2019 20:33  

    Отключить всю рекламу на сайте

    11-10-2013 12:13 Последний из Магикян Скачать торрент  

    лол а я думал очепяткаpb.wtf



      Дорогой пользователь! Огромная просьба, поблагодарите релизера, оцените раздачу и оставьте свои комментарий, если Вы скачали Последний из Магикян через торрент бесплатно! Внесите свою лепту в развитие PiratBit!
      Комментировать посты могут только пользователи прошедшие не сложную регистрацию
      Показать сообщения:    

      Последний из Магикян через торрент
      Скачать бесплатно Последний из Магикян
      Последний из Магикян скачать торрент
      Последний из Магикян смотреть онлайн
      Cкачать фильм Последний из Магикян бесплатно
      Последний из Магикян скачать торрент в хорошем качестве
      Последний из Магикян смотреть онлайн бесплатно в хорошем качестве


      Вы не можете начинать темы
      Вы не можете отвечать на сообщения
      Вы не можете редактировать свои сообщения
      Вы не можете удалять свои сообщения
      Вы не можете голосовать в опросах
      Вы не можете прикреплять файлы к сообщениям
      Вы можете скачивать файлы