Ссылка на приватное зеркало нашего сайта всего за 1$. Внимание количество ограничено!!!

2 сезон

iTunes

1 сезон

1

2 сезон

2 сезон

iTunes

1 сезон

RePack

30

Новинка

ВАЖНО

ИГРА 18+

pack

RePack

MK11
pack

Забери бонус

RePack

jed

!!Акция!!

Alien_Rage

RePack

fifa19

RePack

Assassins Creed: Odyssey

RePack

NEED FOR SPEED™ PAYBACK

4 сезон

9 сезон

Бесстыжие 9 сезон

Все сериалы

все сериалы на PB.wtf

RePack

FAR CRY 5
  

Индюки: Назад в будущее / Free Birds (Джимми Хейуорд / Jimmy Hayward) [2013, Мультфильм, комедия, приключения, BDRip 1080p, DUB] Half OverUnder / Вертикальная анаморфная стереопара pb.wtf

Индюки: Назад в будущее через торрент pb.wtf

Размер: 6.4 GB | Добавлен: 6 лет 11 мес. назад | Торрент скачан:364 раза
Скачать  

15-12-2013 19:19 Индюки: Назад в будущее Скачать торрент  

Индюки: Назад в будущее / Free Birds

Год выпуска : 2013
Страна: США
Жанр: Мультфильм, комедия, приключения, семейный

Продолжительность: 01:31:02
Перевод: Дубляж [Лицензия]
Субтитры: Нет
Режиссер: Джимми Хейуорд / Jimmy Hayward
В ролях: Оуэн Уилсон (Reggie, озвучка), Вуди Харрельсон (Jake, озвучка), Эми Полер (Jenny, озвучка), Джордж Такей (S.T.E.V.E., озвучка), Колм Мини (Myles Standish, озвучка), Кит Дэвид (Chief Broadbeak, озвучка), Дэн Фоглер (Governor Bradford, озвучка), Джимми Хейуорд (Ranger, Leatherbeak, President, Hazmats, Additional Voice Talent, озвучка), Кейтлин Мехер (President's Daughter, озвучка), Карлос Аласраки (Amos, озвучка), Джефф Бьянкалана (General Sagan, Hazmats, Additional Voice Talent, озвучка), Дэнни Кэри (Danny, озвучка)
Описание: Индюк Реджи вырос на обычной ферме, его жизнь была скучной и однообразной, как и у других птиц. Однако он отличался от сородичей тем, что умел пользоваться смекалкой и понимал, зачем его кормят. Поедание индейки на День Благодарения - знаменитая американская традиция, которая определяет смысл существования всех индюков на этой ферме. Однажды у Реджи появилась возможность кардинально изменить ситуацию: вместе с безумным приятелем Джейком они отправляются в необычное путешествие на машине времени. Основная задача - вернуться во времена, когда зарождалась традиция приготовления индейки на праздник, и изменить ход истории.
Рейтинг

imdb.com: 5.10 (2392)
MPAA: PG - Рекомендуется присутствие родителей
Формат 3D: Half OverUnder / Вертикальная анаморфная стереопара

Качество: BDRip 1080p
Формат: MKV
Видео кодек: AVC
Аудио кодек: AC3
Видео: AVC, 1920x1080 (16:9), 9412 kbps, 23,976 fps, 0,189 bpp
Аудио: русский / AC3 / 5.1 / 48 kHz / 448 kbps / 16 bit

General
Unique ID : 233747121890158620469080066277498145793 (0xAFDA0EE2AC58A1BC90093411F077CC01)
Complete name : H:Indyki_3D.mkv
Format : Matroska
Format version : Version 2
File size : 6.40 GiB
Duration : 1h 31mn
Overall bit rate : 10.1 Mbps
Movie name : Indyki_3D_Half_O/U
Encoded date : UTC 2013-12-15 07:25:00
Writing application : mkvmerge v5.7.0 ('The Whirlwind') built on Aug 7 2012 14:11:40
Writing library : libebml v1.2.3 + libmatroska v1.3.0

Video
ID : 1
Format : AVC
Format/Info : Advanced Video Codec
Format profile : High@L4.1
Format settings, CABAC : Yes
Format settings, ReFrames : 4 frames
Codec ID : V_MPEG4/ISO/AVC
Duration : 1h 31mn
Bit rate : 9 413 Kbps
Width : 1 920 pixels
Height : 1 080 pixels
Display aspect ratio : 16:9
Frame rate mode : Variable
Frame rate : 23.976 fps
Color space : YUV
Chroma subsampling : 4:2:0
Bit depth : 8 bits
Scan type : Progressive
Bits/(Pixel*Frame) : 0.189
Stream size : 5.99 GiB (94%)
Title : rip by I/N
Writing library : x264 core 128 r2216M 198a7ea
Encoding settings : cabac=1 / ref=4 / deblock=1:-3:-3 / analyse=0x3:0x133 / me=umh / subme=10 / psy=1 / psy_rd=1.00:0.15 / mixed_ref=1 / me_range=32 / chroma_me=1 / trellis=2 / 8x8dct=1 / cqm=0 / deadzone=21,11 / fast_pskip=1 / chroma_qp_offset=-3 / threads=8 / lookahead_threads=1 / sliced_threads=0 / nr=0 / decimate=1 / interlaced=0 / bluray_compat=0 / constrained_intra=0 / bframes=6 / b_pyramid=2 / b_adapt=2 / b_bias=0 / direct=3 / weightb=1 / open_gop=0 / weightp=2 / keyint=230 / keyint_min=23 / scenecut=40 / intra_refresh=0 / rc_lookahead=60 / rc=crf / mbtree=1 / crf=17.0 / qcomp=0.60 / qpmin=0 / qpmax=69 / qpstep=4 / vbv_maxrate=40000 / vbv_bufsize=30000 / crf_max=30.0 / nal_hrd=none / ip_ratio=1.40 / aq=1:0.70
Default : Yes
Forced : No

Audio
ID : 2
Format : AC-3
Format/Info : Audio Coding 3
Mode extension : CM (complete main)
Codec ID : A_AC3
Duration : 1h 31mn
Bit rate mode : Constant
Bit rate : 448 Kbps
Channel(s) : 6 channels
Channel positions : Front: L C R, Side: L R, LFE
Sampling rate : 48.0 KHz
Bit depth : 16 bits
Compression mode : Lossy
Stream size : 292 MiB (4%)
Title : Дубляж
Language : Russian
Default : Yes
Forced : No

Menu
00:00:00.000 : en:(01)00:00:00:000
00:05:46.637 : en:(02)00:05:46:637
00:10:19.744 : en:(03)00:10:19:744
00:16:16.767 : en:(04)00:16:16:767
00:22:34.686 : en:(05)00:22:34:686
00:26:28.628 : en:(06)00:26:28:628
00:33:04.023 : en:(07)00:33:04:023
00:39:01.255 : en:(08)00:39:01:255
00:43:44.121 : en:(09)00:43:44:121
00:48:26.028 : en:(10)00:48:26:028
00:55:57.270 : en:(11)00:55:57:270
01:01:39.737 : en:(12)01:01:39:737
01:07:37.344 : en:(13)01:07:37:344
01:14:21.248 : en:(14)01:14:21:248
01:20:09.638 : en:(15)01:20:09:638
01:23:56.072 : en:(16)01:23:56:072
01:31:01.956 : en:(17)01:31:01:956
pb.wtf



Скачать Индюки: Назад в будущее через торрент http://pic.kartinco.top/images/6/9moqr.jpg Скачать фильм Индюки: Назад в будущее через торрент бесплантно в хорошем качестве Описание: Индюк Реджи вырос на обычной ферме, его жизнь была скучной и однообразной, как и у других птиц. Однако он отличался от сородичей ... 9.7 10 15
Info! Золотая раздача, скачанное не засчитывается.
Торрент: Зарегистрирован [2013-12-15 19:19] · скачан: 364 раз
Статус: √ проверено
Размер: 6.4 GB
Как cкачать? Как скачать Индюки: Назад в будущее через торрент | qTorrent

28-11-2019 20:33  

Отключить всю рекламу на сайте

16-12-2013 08:42 Индюки: Назад в будущее Скачать торрент  

Класс! Спасибо! pb.wtf



16-12-2013 08:56 Индюки: Назад в будущее Скачать торрент  

Весёлый Мульт :3pb.wtf



    Дорогой пользователь! Огромная просьба, поблагодарите релизера, оцените раздачу и оставьте свои комментарий, если Вы скачали Индюки: Назад в будущее через торрент бесплатно! Внесите свою лепту в развитие PiratBit!
    Комментировать посты могут только пользователи прошедшие не сложную регистрацию
    Показать сообщения:    

    Индюки: Назад в будущее через торрент
    Скачать бесплатно Индюки: Назад в будущее
    Индюки: Назад в будущее скачать торрент
    Индюки: Назад в будущее смотреть онлайн
    Cкачать фильм Индюки: Назад в будущее бесплатно
    Индюки: Назад в будущее скачать торрент в хорошем качестве
    Индюки: Назад в будущее смотреть онлайн бесплатно в хорошем качестве


    Вы не можете начинать темы
    Вы не можете отвечать на сообщения
    Вы не можете редактировать свои сообщения
    Вы не можете удалять свои сообщения
    Вы не можете голосовать в опросах
    Вы не можете прикреплять файлы к сообщениям
    Вы можете скачивать файлы