2 сезон

iTunes

MVO

1

2 сезон

iTunes

iTunes

1 сезон

RePack

30

Ultimate

ВАЖНО

ИГРА 18+

pack

RePack

MK11
pack

Легкие деньги

RePack

jed

RePack

fifa19

RePack

RDR2

RePack

NEED FOR SPEED™ PAYBACK

4 сезон

9 сезон

Бесстыжие 9 сезон

Все сериалы

все сериалы на PB.wtf

RePack

FAR CRY 5

Anonymous, добрый вечер, мы не успеваем собрать деньги на оплату серверов за декабрь и январь, помогите нам пожалуйста в это трудное время. В качестве благодарности мы отключим Вам всю рекламу на сайте (укажите свой ник в строку Ваше имя)!

×
  
Magnet ссылка

В осаде / Suddenly (Уве Болл / Uwe Boll) [2013, Канада, США, триллер, HDRip]MVO pb.wtf

В осаде через торрент pb.wtf

Размер: 1.36 GB | Добавлен: 7 лет 1 мес. назад | Торрент скачан:1042 раза
Скачать  

16-12-2013 02:28 В осаде Скачать торрент  

В осаде / Suddenly
Год выпуска: 2013
Страна: Канада, США
Жанр: триллер
Продолжительность: 01:30:09
Перевод: Профессиональный (многоголосый, закадровый)
Субтитры: Нет

Режиссер: Уве Болл / Uwe Boll
Сценарий: Рауль Инглис / Raul Inglis
Продюсер: Amar Balaggan, Деви Сингх / Devi Singh, Джеймс Майкл Вернон / James Michael Vernon, Уве Болл / Uwe Boll, Скотт Крамер / Scott Cramer
Оператор: Брендан Мк Уэгама / Brendan Mk Uegama
Композитор: Стью Голдберг / Stu Goldberg

В ролях: Рэй Лиотта (Deputy Todd Shaw), Эрин Карплак (Ellen), Доминик Пёрселл (Baron), Дон Маккэй (Pete), Коул Кокер (Pidge), Тайрон Лейтсо (Agent Wheeler), Майкл Паре (Agent Benny Conklin), Стив Бачич (Dan Carney), Гари Чок (Sheriff Grant), Брендан Флетчер (Deputy Anderson), Дэрил Шаттлворф (Nate), Крис Шилдс (President)

Мировая премьера: 8 августа 2013
Релиз на DVD: 12 декабря 2013

Описание: Четверо убийц во главе с Бароном, представляются агентами секретной службы, чтобы реквизировать дом вдовы Эллен. Ее дом играет роль снайперской позиции в их плане покушения на президента во время его визита в маленький городок под названием Садденли. Убийцы провели всех местных полицейских, кроме одного - пьяницы Тодда, который служил вместе с покойным супругом Эллен...

Рейтинг
imdb.com: 3.70 (329)

Качество: HDRip
Формат: AVI
Видео кодек: XviD
Аудио кодек: AC3
Видео: 1702 Кбит/сек, 720*400 (16:9), в 23,976 кадра/сек, MPEG-4 Visual (XviD)
Аудио: Русский 448 Кбит/сек, 48,0 КГц, 16 бит, 6 каналов, AC-3

Общее
Кол-во : 279
Кол-во потоков такого типа : 1
Тип потока : General
Тип потока : Общее
Идентификатор типа потока : 0
Inform : AVI: 1,36 Гбайт, 1 ч. 30 м.
Кол-во видеопотоков : 1
Кол-во аудиопотоков : 1
Video_Format_List : MPEG-4 Visual
Video_Format_WithHint_List : MPEG-4 Visual (XviD)
Видеокодеки : XviD
Audio_Format_List : AC-3
Audio_Format_WithHint_List : AC-3
Аудиокодеки : AC3
Полное имя : D:ФильмыОсада.avi
Имя папки : D:Фильмы
Имя файла : Осада
Расширение : avi
Формат : AVI
Формат : AVI
Формат/Информация : Audio Video Interleave
Формат/Используется в : avi
Коммерческое название : AVI
Интернет-тип носителя : video/vnd.avi
Чередующаяся : Yes
Кодек : AVI
Кодек : AVI
Кодек/Информация : Audio Video Interleave
Кодек/Используется в : avi
Размер файла : 1460365312
Размер файла : 1,36 Гбайт
Размер файла : 1 Гбайт
Размер файла : 1,4 Гбайт
Размер файла : 1,36 Гбайт
Размер файла : 1,360 Гбайт
Продолжительность : 5409446
Продолжительность : 1 ч. 30 м.
Продолжительность : 1 ч. 30 м. 9 с. 446 мс.
Продолжительность : 1 ч. 30 м.
Продолжительность : 01:30:09.446
Общий поток : 2159726
Общий поток : 2160 Кбит/сек
Размер потока : 6344155
Размер потока : 6,05 Мбайт (0%)
Размер потока : 6 Мбайт
Размер потока : 6,1 Мбайт
Размер потока : 6,05 Мбайт
Размер потока : 6,050 Мбайт
Размер потока : 6,05 Мбайт (0%)
Пропорции потока : 0.00434
Дата файла : UTC 2013-12-16 02:02:00.460
Дата файла (местная) : 2013-12-16 09:02:00.460
Дата изменения файла : UTC 2013-12-16 01:16:01.547
Дата изменения файла (местная) : 2013-12-16 08:16:01.547
Программа кодирования : VirtualDubMod 1.5.10.2 (build 2540/release)
Библиотека кодирования : VirtualDubMod build 2540/release
Библиотека кодирования : VirtualDubMod build 2540/release

Видео
Кол-во : 248
Кол-во потоков такого типа : 1
Тип потока : Video
Тип потока : Видео
Идентификатор типа потока : 0
Inform : 1702 Кбит/сек, 720*400 (16:9), в 23,976 кадра/сек, MPEG-4 Visual (XviD) (Advanced Simple@L5) (BVOP2)
Идентификатор : 0
Идентификатор : 0
Формат : MPEG-4 Visual
Коммерческое название : MPEG-4 Visual
Профиль формата : Advanced Simple@L5
Настройки формата : BVOP2
Параметр BVOP формата : 2
Параметр BVOP формата : 2
Параметр QPel формата : No
Параметр QPel формата : Нет
Параметр GMC формата : 0
Параметр GMC формата : Без точки перехода
Параметр матрицы формата : Default (H.263)
Параметр матрицы формата : Default (H.263)
Интернет-тип носителя : video/MP4V-ES
Идентификатор кодека : XVID
Идентификатор кодека/Подсказка : XviD
Идентификатор кодека/Ссылка : http://mediaarea.net/XVID
Кодек : XVID
Кодек : XviD
Кодек/Семейство : MPEG-4V
Кодек/Информация : XviD project
Кодек/Ссылка : http://www.xvid.org/Downloads.15.0.html
Кодек/CC : XVID
Профиль кодека : Advanced Simple@L5
Настройки кодека : BVOP
Параметр пакетного потока данных кодека : No
Параметр BVOP кодека : Yes
Параметр QPel кодека : No
Параметр GMC кодека : 0
Параметр GMC кодека : Без точки перехода
Параметр матрицы кодека : Default (H.263)
Продолжительность : 5409446
Продолжительность : 1 ч. 30 м.
Продолжительность : 1 ч. 30 м. 9 с. 446 мс.
Продолжительность : 1 ч. 30 м.
Продолжительность : 01:30:09.446
Битрейт : 1702428
Битрейт : 1702 Кбит/сек
Ширина : 720
Ширина : 720 пикселей
Высота : 400
Высота : 400 пикселей
Пропорции пикселя : 1.000
Соотношение сторон : 1.800
Соотношение сторон : 16:9
Частота кадров : 23.976
Частота кадров : 23,976 кадра/сек
Счётчик кадров : 129697
Разрешение : 8
Разрешение : 8 бит
Колориметрия : 4:2:0
Цветовое пространство : YUV
Субдискретизация насыщенности : 4:2:0
Битовая глубина : 8
Битовая глубина : 8 бит
Тип развёртки : Progressive
Тип развёртки : Прогрессивная
Переплетение : PPF
Переплетение : Прогрессивная
Метод сжатия : Lossy
Метод сжатия : С потерями
Бит/(Пиксели*Кадры) : 0.247
Задержка : 0
Задержка : 00:00:00.000
Размер потока : 1151149861
Размер потока : 1,07 Гбайт (79%)
Размер потока : 1 Гбайт
Размер потока : 1,1 Гбайт
Размер потока : 1,07 Гбайт
Размер потока : 1,072 Гбайт
Размер потока : 1,07 Гбайт (79%)
Пропорции потока : 0.78826
Библиотека кодирования : XviD0050
Библиотека кодирования : XviD 1.2.1 (UTC 2008-12-04)
Библиотека кодирования/Имя : XviD
Библиотека кодирования/Version : 1.2.1
Библиотека кодирования/Дата : UTC 2008-12-04

Аудио
Кол-во : 245
Кол-во потоков такого типа : 1
Тип потока : Audio
Тип потока : Аудио
Идентификатор типа потока : 0
Inform : 448 Кбит/сек, 48,0 КГц, 16 бит, 6 каналов, AC-3
Идентификатор : 1
Идентификатор : 1
Формат : AC-3
Формат/Информация : Audio Coding 3
Коммерческое название : AC-3
Расширение режима : CM (complete main)
Параметр Endianness формата : Big
Идентификатор кодека : 2000
Кодек : AC3
Кодек : AC3
Кодек/Семейство : AC3
Кодек/Информация : Dolby AC3
Кодек/CC : 2000
Продолжительность : 5408416
Продолжительность : 1 ч. 30 м.
Продолжительность : 1 ч. 30 м. 8 с. 416 мс.
Продолжительность : 1 ч. 30 м.
Продолжительность : 01:30:08.416
Вид битрейта : CBR
Вид битрейта : Постоянный
Битрейт : 448000
Битрейт : 448 Кбит/сек
Каналы : 6
Каналы : 6 каналов
Расположение каналов : Front: L C R, Side: L R, LFE
Расположение каналов : 3/2/0.1
Частота : 48000
Частота : 48,0 КГц
Количество образцов : 259603968
Разрешение : 16
Разрешение : 16 бит
Битовая глубина : 16
Битовая глубина : 16 бит
Метод сжатия : Lossy
Метод сжатия : С потерями
Задержка : 0
Задержка : 00:00:00.000
Задержка в оригинале : Stream
Задержка в оригинале : 'Сырой' поток
Задержка видео : 0
Задержка видео : 0
Размер потока : 302871296
Размер потока : 289 Мбайт (21%)
Размер потока : 289 Мбайт
Размер потока : 289 Мбайт
Размер потока : 289 Мбайт
Размер потока : 288,8 Мбайт
Размер потока : 289 Мбайт (21%)
Пропорции потока : 0.20739
Выравнивание : Split
Выравнивание : Разделение по промежуткам
Продолжительность промежутка : 1.00
Продолжительность промежутка : 42
Продолжительность промежутка : 42 мс. (1,00 видеокадр)
Время предзагрузки промежутка : 500
Время предзагрузки промежутка : 500 мс.
dialnorm : -27
dialnorm/String : -27 dB
compr : -0.28
compr/String : -0.28 dB
dynrng : -0.86
dynrng/String : -0.86 dB
bsid : 8
dialnorm_Average : -27
dialnorm_Average/String : -27 dB
dialnorm_Minimum : -27
dialnorm_Minimum/String : -27 dB
dialnorm_Maximum : -27
dialnorm_Maximum/String : -27 dB
dialnorm_Count : 405
compr_Average : -2.57
compr_Average/String : -2.57 dB
compr_Minimum : -13.84
compr_Minimum/String : -13.84 dB
compr_Maximum : 2.77
compr_Maximum/String : 2.77 dB
compr_Count : 405
dynrng_Average : 14.44
dynrng_Average/String : 14.44 dB
dynrng_Minimum : -22.36
dynrng_Minimum/String : -22.36 dB
dynrng_Maximum : 23.94
dynrng_Maximum/String : 23.94 dB
dynrng_Count : 405


скриншот  скриншот  скриншот  скриншот  скриншот  



pb.wtf



Скачать В осаде через торрент http://trueimages.ru/img/46/b0/cff5ea25.jpg Скачать фильм В осаде через торрент бесплантно в хорошем качестве Описание: Четверо убийц во главе с Бароном, представляются агентами секретной службы, чтобы реквизировать дом вдовы Эллен. Ее дом играет ... 9.6 10 36
Info! Золотая раздача, скачанное не засчитывается.
Торрент: Зарегистрирован [2013-12-16 02:28] · скачан: 1 042 раз
Статус: √ проверено
Размер: 1.36 GB
Как cкачать? Как скачать В осаде через торрент | UTorrent

28-11-2019 20:33  

Отключить всю рекламу на сайте

16-12-2013 05:24 В осаде Скачать торрент  

Легендарный Уве Болл заманил в свои сети Рея Лиотту и Майкла Паре.. Походу следующий на очереди Ван Дамм))pb.wtf



17-12-2013 15:39 В осаде Скачать торрент  

aser78 писал(а):

Легендарный Уве Болл заманил в свои сети Рея Лиотту и Майкла Паре.. Походу следующий на очереди Ван Дамм))

А почему заманил? Майкл Паре уже давно и плотно снимается в фильмах Уве Болла( Сид: Месть восставшего, Бладрейн, Бладрейн 2: Освобождение,
Бладрейн 3, Фар Край, Один в темноте 2, Блюбарелла: Супервумен, Нападение на Уолл-стрит).pb.wtf



    Дорогой пользователь! Огромная просьба, поблагодарите релизера, оцените раздачу и оставьте свои комментарий, если Вы скачали В осаде через торрент бесплатно! Внесите свою лепту в развитие PiratBit!
    Комментировать посты могут только пользователи прошедшие не сложную регистрацию
    Показать сообщения:    

    В осаде через торрент
    Скачать бесплатно В осаде
    В осаде скачать торрент
    В осаде смотреть онлайн
    Cкачать фильм В осаде бесплатно
    В осаде скачать торрент в хорошем качестве
    В осаде смотреть онлайн бесплатно в хорошем качестве


    Вы не можете начинать темы
    Вы не можете отвечать на сообщения
    Вы не можете редактировать свои сообщения
    Вы не можете удалять свои сообщения
    Вы не можете голосовать в опросах
    Вы не можете прикреплять файлы к сообщениям
    Вы можете скачивать файлы