Мега распродажа FORZA HORIZON 4 ULTIMATE+ВСЕ DLC+ОНЛАЙН всего за 499р. 349 руб. (супер цена). Внимание количество ограничено!!!

Лицензия

30

iTunes

мы

iTunes

1

1 сезон

Чернобыль

1 сезон

Ральф против интернета

MVO

Покемон. Детектив Пикачу

8 сезон

Игра престолов

iTunes

1+1

ИГРА 18+

pack

ВАЖНО

!!Акция!!

Alien_RageХит недели

RePack

Resident Evil 21
pack

RePack

Metro:Exodus

!!Акция!!

Alien_Rage

RePack

fifa19

RePack

Assassins Creed: Odyssey

RePack

NEED FOR SPEED™ PAYBACK

3 сезон

9 сезон

Бесстыжие 9 сезон

Все сериалы

все сериалы на PB.wtf

RePack

FAR CRY 5
Ребята, катастрофически не хватает 2730р. для оплаты серверов за МАЙ (всвязи с блокировками трафик упал в 3 раза), 1-2р., выручайте.
  

Черные воды озера Эха / The Black Waters of Echo's Pond (Гэбриел Болонья / Gabriel Bologna) [ 2009 , США , ужасы, фэнтези, триллер , HDRip ]DVO [Den904 & DeadSno] pb.wtf

Черные воды озера Эха через торрент pb.wtf

Размер: 1.37 GB | Добавлен: 5 лет 6 мес. назад | Торрент скачан:195 раз
Скачать  

16-12-2013 04:55 Черные воды озера Эха Скачать торрент  

Черные воды озера Эха / The Black Waters of Echo's Pond
Год выпуска: 2009
Страна: США
Жанр: ужасы, фэнтези, триллер
Продолжительность: 01:32:37
Перевод: Любительский (двухголосый)[Den904 & DeadSno]
Субтитры: Нет

Режиссер: Гэбриел Болонья / Gabriel Bologna
Сценарий: Майкл Беренсон / Michael Berenson, Гэбриел Болонья / Gabriel Bologna, Шон Кларк / Sean Clark
Продюсер: Джейсон Лоугридж / Jason Loughridge, Рэймонд Дж. Маркович / Raymond J. Markovich, Нитса Беншетри / Nitsa Benchetrit, Michael Shahoud, Рик Спалла / Rick Spalla
Оператор: Массимо Зери / Massimo Zeri
Композитор: Гарри Манфредини / Harry Manfredini

В ролях: Роберт Патрик (Pete), Даниэль Харрис (Kathy), Шон Лоулор (Charles), Джеймс Дювал (Rick), Ник Меннелл (Josh), Марсей Монро (Veronique), Аркадий Голубович (Anton), Электра Авеллан (Renee), Элиз Авеллан (Erica), Ховард Уолкер (Trent), М.Д. Уолтон (Robert), Деклан Джойс (Danny)

Мировая премьера: 31 октября 2009

Описание: Девять друзей решают провести выходные в викторианском доме на частном озеоре. Там они находят странную настольную игру, Игру, которая раскрывает в них всё самое худшее - ревность, жадность, ненависть, похоть.
Всё то, что они держат похороненным глубоко в себе, и что в процессе игры поднимается на поверхность и доводит их до точки кипения..

Рейтинг
imdb.com: 4.50 (244)
MPAA: R - Лицам до 17 лет обязательно присутствие взрослого

Качество: HDRip
Формат: AVI
Видео кодек: XviD
Аудио кодек: AC3
Видео: 1468 Кбит/сек, 720*400 (16:9), в 23,976 кадра/сек, MPEG-4 Visual (XviD)
Аудио №1: Русский 192 Кбит/сек, 48,0 КГц, 16 бит, 2 канала, AC-3
Аудио №2: Английский 448 Кбит/сек, 48,0 КГц, 16 бит, 6 каналов, AC-3

Общее
Кол-во : 279
Кол-во потоков такого типа : 1
Тип потока : General
Тип потока : Общее
Идентификатор типа потока : 0
Inform : AVI: 1,37 Гбайт, 1 ч. 32 м.
Кол-во видеопотоков : 1
Кол-во аудиопотоков : 2
Video_Format_List : MPEG-4 Visual
Video_Format_WithHint_List : MPEG-4 Visual (XviD)
Видеокодеки : XviD
Audio_Format_List : AC-3 / AC-3
Audio_Format_WithHint_List : AC-3 / AC-3
Аудиокодеки : AC3 / AC3
Полное имя : D:Фильмыводы озера.avi
Имя папки : D:Фильмы
Имя файла : воды озера
Расширение : avi
Формат : AVI
Формат : AVI
Формат/Информация : Audio Video Interleave
Формат/Используется в : avi
Коммерческое название : AVI
Интернет-тип носителя : video/vnd.avi
Чередующаяся : Yes
Кодек : AVI
Кодек : AVI
Кодек/Информация : Audio Video Interleave
Кодек/Используется в : avi
Размер файла : 1473982464
Размер файла : 1,37 Гбайт
Размер файла : 1 Гбайт
Размер файла : 1,4 Гбайт
Размер файла : 1,37 Гбайт
Размер файла : 1,373 Гбайт
Продолжительность : 5557427
Продолжительность : 1 ч. 32 м.
Продолжительность : 1 ч. 32 м. 37 с. 427 мс.
Продолжительность : 1 ч. 32 м.
Продолжительность : 01:32:37.427
Общий поток : 2121820
Общий поток : 2122 Кбит/сек
Размер потока : 9878698
Размер потока : 9,42 Мбайт (1%)
Размер потока : 9 Мбайт
Размер потока : 9,4 Мбайт
Размер потока : 9,42 Мбайт
Размер потока : 9,421 Мбайт
Размер потока : 9,42 Мбайт (1%)
Пропорции потока : 0.00670
Дата файла : UTC 2013-12-16 02:41:48.191
Дата файла (местная) : 2013-12-16 09:41:48.191
Дата изменения файла : UTC 2013-12-16 04:29:25.626
Дата изменения файла (местная) : 2013-12-16 11:29:25.626
Программа кодирования : VirtualDubMod 1.5.10.2 (build 2540/release)
Библиотека кодирования : VirtualDubMod build 2540/release
Библиотека кодирования : VirtualDubMod build 2540/release

Видео
Кол-во : 248
Кол-во потоков такого типа : 1
Тип потока : Video
Тип потока : Видео
Идентификатор типа потока : 0
Inform : 1468 Кбит/сек, 720*400 (16:9), в 23,976 кадра/сек, MPEG-4 Visual (XviD) (Сжатый битовый поток) (Advanced Simple@L5) (BVOP2)
Идентификатор : 0
Идентификатор : 0
Формат : MPEG-4 Visual
Коммерческое название : MPEG-4 Visual
Профиль формата : Advanced Simple@L5
Настройки формата : BVOP2
Параметр BVOP формата : 2
Параметр BVOP формата : 2
Параметр QPel формата : No
Параметр QPel формата : Нет
Параметр GMC формата : 0
Параметр GMC формата : Без точки перехода
Параметр матрицы формата : Default (H.263)
Параметр матрицы формата : Default (H.263)
Интернет-тип носителя : video/MP4V-ES
Режим смешивания : Сжатый битовый поток
Идентификатор кодека : XVID
Идентификатор кодека/Подсказка : XviD
Идентификатор кодека/Ссылка : http://mediaarea.net/XVID
Кодек : XVID
Кодек : XviD
Кодек/Семейство : MPEG-4V
Кодек/Информация : XviD project
Кодек/Ссылка : http://www.xvid.org/Downloads.15.0.html
Кодек/CC : XVID
Профиль кодека : Advanced Simple@L5
Настройки кодека : BVOP / Packed Bitstream
Параметр пакетного потока данных кодека : Yes
Параметр BVOP кодека : Yes
Параметр QPel кодека : No
Параметр GMC кодека : 0
Параметр GMC кодека : Без точки перехода
Параметр матрицы кодека : Default (H.263)
Продолжительность : 5557427
Продолжительность : 1 ч. 32 м.
Продолжительность : 1 ч. 32 м. 37 с. 427 мс.
Продолжительность : 1 ч. 32 м.
Продолжительность : 01:32:37.427
Битрейт : 1467599
Битрейт : 1468 Кбит/сек
Ширина : 720
Ширина : 720 пикселей
Высота : 400
Высота : 400 пикселей
Пропорции пикселя : 1.000
Соотношение сторон : 1.800
Соотношение сторон : 16:9
Частота кадров : 23.976
Частота кадров : 23,976 кадра/сек
Счётчик кадров : 133245
Разрешение : 8
Разрешение : 8 бит
Колориметрия : 4:2:0
Цветовое пространство : YUV
Субдискретизация насыщенности : 4:2:0
Битовая глубина : 8
Битовая глубина : 8 бит
Тип развёртки : Progressive
Тип развёртки : Прогрессивная
Переплетение : PPF
Переплетение : Прогрессивная
Метод сжатия : Lossy
Метод сжатия : С потерями
Бит/(Пиксели*Кадры) : 0.213
Задержка : 0
Задержка : 00:00:00.000
Размер потока : 1019509972
Размер потока : 972 Мбайт (69%)
Размер потока : 972 Мбайт
Размер потока : 972 Мбайт
Размер потока : 972 Мбайт
Размер потока : 972,3 Мбайт
Размер потока : 972 Мбайт (69%)
Пропорции потока : 0.69167
Библиотека кодирования : XviD0064
Библиотека кодирования : XviD 64
Библиотека кодирования/Имя : XviD
Библиотека кодирования/Version : 64

Аудио #1
Кол-во : 237
Кол-во потоков такого типа : 2
Тип потока : Audio
Тип потока : Аудио
Идентификатор типа потока : 0
Позиция идентификатора типа потока : 1
Inform : 192 Кбит/сек, 48,0 КГц, 16 бит, 2 канала, AC-3
Идентификатор : 1
Идентификатор : 1
Формат : AC-3
Формат/Информация : Audio Coding 3
Коммерческое название : AC-3
Расширение режима : CM (complete main)
Параметр Endianness формата : Big
Идентификатор кодека : 2000
Кодек : AC3
Кодек : AC3
Кодек/Семейство : AC3
Кодек/Информация : Dolby AC3
Кодек/CC : 2000
Продолжительность : 5557423
Продолжительность : 1 ч. 32 м.
Продолжительность : 1 ч. 32 м. 37 с. 423 мс.
Продолжительность : 1 ч. 32 м.
Продолжительность : 01:32:37.423
Вид битрейта : CBR
Вид битрейта : Постоянный
Битрейт : 192000
Битрейт : 192 Кбит/сек
Каналы : 2
Каналы : 2 канала
Расположение каналов : Front: L R
Расположение каналов : 2/0/0
Частота : 48000
Частота : 48,0 КГц
Количество образцов : 266756304
Разрешение : 16
Разрешение : 16 бит
Битовая глубина : 16
Битовая глубина : 16 бит
Метод сжатия : Lossy
Метод сжатия : С потерями
Задержка : 0
Задержка : 00:00:00.000
Задержка в оригинале : Stream
Задержка в оригинале : 'Сырой' поток
Задержка видео : 0
Задержка видео : 0
Размер потока : 133378138
Размер потока : 127 Мбайт (9%)
Размер потока : 127 Мбайт
Размер потока : 127 Мбайт
Размер потока : 127 Мбайт
Размер потока : 127,2 Мбайт
Размер потока : 127 Мбайт (9%)
Пропорции потока : 0.09049
Выравнивание : Split
Выравнивание : Разделение по промежуткам
Продолжительность промежутка : 1.00
Продолжительность промежутка : 42
Продолжительность промежутка : 42 мс. (1,00 видеокадр)
Время предзагрузки промежутка : 500
Время предзагрузки промежутка : 500 мс.
dsurmod : 0
dialnorm : -31
dialnorm/String : -31 dB
compr : -0.28
compr/String : -0.28 dB
bsid : 4
dialnorm_Average : -31
dialnorm_Average/String : -31 dB
dialnorm_Minimum : -31
dialnorm_Minimum/String : -31 dB
dialnorm_Maximum : -31
dialnorm_Maximum/String : -31 dB
dialnorm_Count : 405
compr_Average : -0.28
compr_Average/String : -0.28 dB
compr_Minimum : -0.28
compr_Minimum/String : -0.28 dB
compr_Maximum : -0.28
compr_Maximum/String : -0.28 dB
compr_Count : 405

Аудио #2
Кол-во : 227
Кол-во потоков такого типа : 2
Тип потока : Audio
Тип потока : Аудио
Идентификатор типа потока : 1
Позиция идентификатора типа потока : 2
Inform : 448 Кбит/сек, 48,0 КГц, 16 бит, 6 каналов, AC-3
Идентификатор : 2
Идентификатор : 2
Формат : AC-3
Формат/Информация : Audio Coding 3
Коммерческое название : AC-3
Расширение режима : CM (complete main)
Параметр Endianness формата : Big
Идентификатор кодека : 2000
Кодек : AC3
Кодек : AC3
Кодек/Семейство : AC3
Кодек/Информация : Dolby AC3
Кодек/CC : 2000
Продолжительность : 5557423
Продолжительность : 1 ч. 32 м.
Продолжительность : 1 ч. 32 м. 37 с. 423 мс.
Продолжительность : 1 ч. 32 м.
Продолжительность : 01:32:37.423
Вид битрейта : CBR
Вид битрейта : Постоянный
Битрейт : 448000
Битрейт : 448 Кбит/сек
Каналы : 6
Каналы : 6 каналов
Расположение каналов : Front: L C R, Side: L R, LFE
Расположение каналов : 3/2/0.1
Частота : 48000
Частота : 48,0 КГц
Количество образцов : 266756304
Разрешение : 16
Разрешение : 16 бит
Битовая глубина : 16
Битовая глубина : 16 бит
Метод сжатия : Lossy
Метод сжатия : С потерями
Задержка : 0
Задержка : 00:00:00.000
Задержка в оригинале : Stream
Задержка в оригинале : 'Сырой' поток
Задержка видео : 0
Задержка видео : 0
Размер потока : 311215656
Размер потока : 297 Мбайт (21%)
Размер потока : 297 Мбайт
Размер потока : 297 Мбайт
Размер потока : 297 Мбайт
Размер потока : 296,8 Мбайт
Размер потока : 297 Мбайт (21%)
Пропорции потока : 0.21114
Выравнивание : Split
Выравнивание : Разделение по промежуткам
Продолжительность промежутка : 1.00
Продолжительность промежутка : 42
Продолжительность промежутка : 42 мс. (1,00 видеокадр)
Время предзагрузки промежутка : 500
Время предзагрузки промежутка : 500 мс.
dialnorm : -31
dialnorm/String : -31 dB
bsid : 8
dialnorm_Average : -31
dialnorm_Average/String : -31 dB
dialnorm_Minimum : -31
dialnorm_Minimum/String : -31 dB
dialnorm_Maximum : -31
dialnorm_Maximum/String : -31 dB
dialnorm_Count : 405


скриншот  скриншот  скриншот  скриншот  скриншот  скриншот  скриншот  скриншот  



pb.wtf



Скачать Черные воды озера Эха через торрент http://trueimages.ru/img/58/be/6e96ea25.jpg Скачать фильм Черные воды озера Эха через торрент бесплантно в хорошем качестве Описание: Девять друзей решают провести выходные в викторианском доме на частном озеоре. Там они находят странную настольную игру, Игру, ... 9.9 10 14
Info! Золотая раздача, скачанное не засчитывается.
Торрент: Зарегистрирован [2013-12-16 04:55] · скачан: 195 раз
Статус: √ проверено
Размер: 1.37 GB
Как cкачать? Как скачать Черные воды озера Эха через торрент | qTorrent


>> Регистрируемся здесь <<






Отзывы и комментарии о схеме читаем и пишем здесь: ---> Отзывы и комментарии о схеме

Новые благодарочки в телеграм довольных пользователей:
скриншот   скриншот   скриншот   скриншот   скриншот

23-12-2013 09:35 Черные воды озера Эха Скачать торрент  

Не очень наверно фильм...Кто нить смотрел?pb.wtf



23-12-2013 19:13 Черные воды озера Эха Скачать торрент  

125 раз скачали,и ни 1 комента сукиpb.wtf



    Дорогой пользователь! Огромная просьба, поблагодарите релизера, оцените раздачу и оставьте свои комментарий, если Вы скачали Черные воды озера Эха через торрент бесплатно! Внесите свою лепту в развитие PiratBit!
    Комментировать посты могут только пользователи прошедшие не сложную регистрацию
    Показать сообщения:    

    Черные воды озера Эха через торрент
    Скачать бесплатно Черные воды озера Эха
    Черные воды озера Эха скачать торрент
    Черные воды озера Эха смотреть онлайн
    Cкачать фильм Черные воды озера Эха бесплатно
    Черные воды озера Эха скачать торрент в хорошем качестве
    Черные воды озера Эха смотреть онлайн бесплатно в хорошем качестве


    Вы не можете начинать темы
    Вы не можете отвечать на сообщения
    Вы не можете редактировать свои сообщения
    Вы не можете удалять свои сообщения
    Вы не можете голосовать в опросах
    Вы не можете прикреплять файлы к сообщениям
    Вы можете скачивать файлы