новый адрес
Мега распродажа FORZA HORIZON 4 ULTIMATE+ВСЕ DLC+ОНЛАЙН всего за 499р. 349 руб. (супер цена). Внимание количество ограничено!!!

iTunes

1+1

iTunes

мы

iTunes

1

iTunes

Чернобыль

iTunes

Ральф против интернета

Лицензия

ПШазам

Лицензия

Игра престолов

Лицензия

30
pack

ВАЖНО

!!Акция!!

Alien_RageХит недели

RePack

Resident Evil 21

ИГРА 18+

pack

RePack

Metro:Exodus

!!Акция!!

Alien_Rage

RePack

fifa19

RePack

Assassins Creed: Odyssey

RePack

NEED FOR SPEED™ PAYBACK

3 сезон

9 сезон

Бесстыжие 9 сезон

Все сериалы

все сериалы на PB.wtf

RePack

FAR CRY 5
Ребята, катастрофически не хватает 1900р. для оплаты серверов за Октябрь (всвязи с блокировками трафик упал в 3 раза), 1-2р., выручайте.
  

Восемь голов в одной сумке / 8 Heads in a Duffel Bag (Том Шульман / Tom Shulman) [1997, боевик, криминал, драма, HDTVRip 720p] [DVO] (Гланц и Королева)) + [AVO] (Василий Горчаков) pb.wtf

Восемь голов в одной сумке через торрент pb.wtf

Размер: 5.87 GB | Добавлен: 5 лет 11 мес. назад | Торрент скачан:38 раз
Скачать  

16-12-2013 13:49 Восемь голов в одной сумке Скачать торрент  

Восемь голов в одной сумке / 8 Heads in a Duffel Bag



Год выпуска: 1997
Страна: США, Великобритания
Производство: Brad Krevoy & Steve Stabler production, Orion Pictures Corporation, The Rank Organisation Film Productions Ltd.
Жанр: Комедия, криминал
Продолжительность: 01:35:12 час.

Режиссёр: Том Шульман
В ролях: Джо Пеши, Энди Комю, Кристи Свэнсон, Джордж Хэмилтон, Дайэн Кэннон, Дэвид Спэйд, Тодд Луизо, Энтони Мангано, Джо Бэзил, Эрнестин Мерсер, Фрэнк Роман, Говард Джордж

Перевод: Профессиональный (двухголосый, закадровый) Гланц и Королева, (авторский одноголосый) Василий Горчаков
Субтитры: Английские

Описание: Томми Спинелли - наемный убийца, работающий на мафию. Убив по заказу восемь человек на тихоокеанском побережье Америки, он должен доставить их головы в Нью-Йорк, чтобы показать заказчику. В аэропорту происходит классическая путаница с багажом, и сумка с головами попадает в руки влюбленной пары. Мафия дает Спинелли два дня на то, чтобы он нашел пропажу. Томми вынужден мчаться за влюбленными и своей сумкой в Мехико.




Качество: HDTVRip 720p
Формат: MKV
Видео кодек: H.264
Аудио кодек: AC3
Видео: 1280x718 (16:9), 23.976 fps, AVC High@L4.1 ~8000 kbps avg, 0.363 bit/pixel
Аудио: 48 kHz, Dolby AC3, Rus, 2 ch, ~192.00 kbps avg [Гланц и Королева]
48 kHz, Dolby AC3, Rus, 2 ch, ~192.00 kbps avg [Василий Горчаков]
48 kHz, Dolby AC3, Eng, 6 ch, ~448.00 kbps avg [оригинал]
Video
ID : 1
Format : AVC
Format/Info : Advanced Video Codec
Format profile : High@L4.1
Format settings, CABAC : Yes
Format settings, ReFrames : 8 frames
Codec ID : V_MPEG4/ISO/AVC
Duration : 1h 35mn
Bit rate : 8 000 Kbps
Width : 1 280 pixels
Height : 718 pixels
Display aspect ratio : 16:9
Frame rate mode : Constant
Frame rate : 23.976 fps
Color space : YUV
Chroma subsampling : 4:2:0
Bit depth : 8 bits
Scan type : Progressive
Bits/(Pixel*Frame) : 0.363
Stream size : 5.20 GiB (89%)
Writing library : x264 core 112 r1834+3 ef18685
Encoding settings : cabac=1 / ref=8 / deblock=1:-3:-3 / analyse=0x3:0x133 / me=umh / subme=9 / psy=1 / fade_compensate=0.00 / psy_rd=1.00:0.25 / mixed_ref=1 / me_range=24 / chroma_me=1 / trellis=2 / 8x8dct=1 / cqm=0 / deadzone=6,6 / fast_pskip=1 / chroma_qp_offset=-4 / threads=3 / sliced_threads=0 / nr=0 / decimate=0 / interlaced=0 / constrained_intra=0 / fgo=0 / bframes=3 / b_pyramid=2 / b_adapt=2 / b_bias=0 / direct=3 / weightb=1 / open_gop=0 / weightp=2 / keyint=250 / keyint_min=23 / scenecut=40 / intra_refresh=0 / rc_lookahead=60 / rc=2pass / mbtree=1 / bitrate=8000 / ratetol=1.0 / qcomp=0.80 / qpmin=0 / qpmax=51 / qpstep=4 / cplxblur=20.0 / qblur=0.5 / ip_ratio=1.10 / aq=1:0.50
Language : English
Default : No
Forced : No

Audio #1
ID : 2
Format : AC-3
Format/Info : Audio Coding 3
Mode extension : CM (complete main)
Format settings, Endianness : Big
Codec ID : A_AC3
Duration : 1h 35mn
Bit rate mode : Constant
Bit rate : 192 Kbps
Channel count : 2 channels
Channel positions : Front: L R
Sampling rate : 48.0 KHz
Bit depth : 16 bits
Compression mode : Lossy
Stream size : 131 MiB (2%)
Title : Glanz & Koroleva
Language : Russian
Default : Yes
Forced : Yes

Audio #2
ID : 3
Format : AC-3
Format/Info : Audio Coding 3
Mode extension : CM (complete main)
Format settings, Endianness : Big
Codec ID : A_AC3
Duration : 1h 35mn
Bit rate mode : Constant
Bit rate : 192 Kbps
Channel count : 2 channels
Channel positions : Front: L R
Sampling rate : 48.0 KHz
Bit depth : 16 bits
Compression mode : Lossy
Stream size : 131 MiB (2%)
Title : Gorchakov
Language : Russian
Default : No
Forced : No

Audio #3
ID : 4
Format : AC-3
Format/Info : Audio Coding 3
Mode extension : CM (complete main)
Format settings, Endianness : Big
Codec ID : A_AC3
Duration : 1h 35mn
Bit rate mode : Constant
Bit rate : 448 Kbps
Channel count : 6 channels
Channel positions : Front: L C R, Side: L R, LFE
Sampling rate : 48.0 KHz
Bit depth : 16 bits
Compression mode : Lossy
Stream size : 305 MiB (5%)
Title : Eng
Language : English
Default : No
Forced : No

Text
ID : 5
Format : UTF-8
Codec ID : S_TEXT/UTF8
Codec ID/Info : UTF-8 Plain Text
Title : Eng
Language : English
Default : No
Forced : No
pb.wtf



Скачать Восемь голов в одной сумке через торрент http://i57.fastpic.ru/big/2013/1216/1f/7e3b88ee3ddc7e22764dff11dde24e1f.jpg Скачать фильм Восемь голов в одной сумке через торрент бесплантно в хорошем качестве Описание: Томми Спинелли - наемный убийца, работающий на мафию. Убив по заказу восемь человек на тихоокеанском побережье Америки, он должен ... 10 10 6
Info! Золотая раздача, скачанное не засчитывается.
Торрент: Зарегистрирован [2013-12-16 13:49] · скачан: 38 раз
Статус: √ проверено
Размер: 5.87 GB
Как cкачать? Как скачать Восемь голов в одной сумке через торрент | qTorrent

% Раздел Тема Автор DL S | L
Фильмы (WEB-DL 720p, 1080p) [ 3.25 GB ] Восемь голов в одной сумке / 8 Heads in a Duffel Bag [1997 WEB-DL 720p] [DVO] + [AVO] killermax2013 Скачать
1 | 0


>> Регистрируемся здесь <<






Отзывы и комментарии о схеме читаем и пишем здесь: ---> Отзывы и комментарии о схеме

Новые благодарочки в телеграм довольных пользователей:
скриншот   скриншот   скриншот   скриншот   скриншот

16-12-2013 15:20 Восемь голов в одной сумке Скачать торрент  

классика-хорошее киноpb.wtf



    Дорогой пользователь! Огромная просьба, поблагодарите релизера, оцените раздачу и оставьте свои комментарий, если Вы скачали Восемь голов в одной сумке через торрент бесплатно! Внесите свою лепту в развитие PiratBit!
    Комментировать посты могут только пользователи прошедшие не сложную регистрацию
    Показать сообщения:    

    Восемь голов в одной сумке через торрент
    Скачать бесплатно Восемь голов в одной сумке
    Восемь голов в одной сумке скачать торрент
    Восемь голов в одной сумке смотреть онлайн
    Cкачать фильм Восемь голов в одной сумке бесплатно
    Восемь голов в одной сумке скачать торрент в хорошем качестве
    Восемь голов в одной сумке смотреть онлайн бесплатно в хорошем качестве


    Вы не можете начинать темы
    Вы не можете отвечать на сообщения
    Вы не можете редактировать свои сообщения
    Вы не можете удалять свои сообщения
    Вы не можете голосовать в опросах
    Вы не можете прикреплять файлы к сообщениям
    Вы можете скачивать файлы