Ссылка на приватное зеркало нашего сайта всего за 1$. Внимание количество ограничено!!!

2 сезон

iTunes

1 сезон

1

iTunes

iTunes

iTunes

1 сезон

RePack

30

ИГРА 18+

pack

ВАЖНО

!!Акция!!

Alien_RageХит недели

RePack

MK11
pack

Забери бонус

RePack

jed

!!Акция!!

Alien_Rage

RePack

fifa19

RePack

Assassins Creed: Odyssey

RePack

NEED FOR SPEED™ PAYBACK

4 сезон

9 сезон

Бесстыжие 9 сезон

Все сериалы

все сериалы на PB.wtf

RePack

FAR CRY 5
  

Всё включено 2 (Эдуард Радзюкевич) [2013 г., Комедия, BDRip-AVC, Лицензия] pb.wtf

Всё включено 2 через торрент pb.wtf

Размер: 1.46 GB | Добавлен: 6 лет 10 мес. назад | Торрент скачан:1356 раз
Скачать  

17-12-2013 02:59 Всё включено 2 Скачать торрент  

Всё включено 2
Год выпуска: 2013
Страна: Россия
Жанр: Комедия,
Продолжительность: 01:39:08
Тип релиза: Лицензия
Субтитры: Нет

Режиссер: Эдуард Радзюкевич



В ролях: Михаил Беспалов, Фёдор Добронравов, Роман Мадянов, Сергей Бурунов, Эдуард Радзюкевич, Андрей Кайков, Григорий Сиятвинда, Карэн Бадалов, Илья Уткин, Михаил Сёмин,

Описание: Когда приятель похож на тебя как две капли воды, тут уж грех не поучаствовать в конкурсе двойников и не срубить легкие деньги в доллар-эквиваленте. И разве может помешать то, что ради этого надо лететь в Стамбул накануне собственной свадьбы?! Чтобы доказать будущему тестю-олигарху, что он способен позаботиться о его дочери, Андрей скрывает от невесты истинную цель своего путешествия и улетает в Турцию. Только планам парня не суждено сбыться, когда он встречает в Стамбуле старинных врагов и безумных друзей. И те, и другие превратят турецкий вояж Андрея в сумасшедший калейдоскоп приключений с риском для жизни.

Качество: BDRip-AVC
Формат: MKV
Видео кодек: H.264
Аудио кодек: AC3
Видео: 1044x446 (2.34:1), 24.000 fps, 1661 Кbps, 0.149 bit/pixel
Аудио#1: 48 kHz, AC3 Dolby Digital, 3/2 (L,C,R,l,r) + LFE ch, 448.00 kbps

Релиз группы:
Автор рипа: potroks





Общее
Уникальный идентификатор : 226855036448655337467027853867098468443 (0xAAAAB0D682622457B1C7AE322912705B)
Полное имя : Vsjo.Vkljucheno.2.2013.RUS.BDRip.x264.-HELLYWOOD.mkv
Формат : Matroska
Версия формата : Version 4 / Version 2
Размер файла : 1,46 Гбайт
Продолжительность : 1 ч. 39 м.
Общий поток : 2111 Кбит/сек
Название фильма : HELLYWOOD - rip by potroks
Дата кодирования : UTC 2013-12-17 02:34:01
Программа кодирования : mkvmerge v5.9.0 ('On The Loose') built on Dec 15 2012 16:39:58
Библиотека кодирования : libebml v1.3.0 + libmatroska v1.4.0

Видео
Идентификатор : 1
Формат : AVC
Формат/Информация : Advanced Video Codec
Профиль формата : High@L4.1
Параметр CABAC формата : Да
Параметр ReFrames формата : 10 кадров
Идентификатор кодека : V_MPEG4/ISO/AVC
Продолжительность : 1 ч. 39 м.
Битрейт : 1661 Кбит/сек
Ширина : 1044 пикселя
Высота : 446 пикселей
Соотношение сторон : 2,35:1
Режим частоты кадров : Постоянный
Частота кадров : 24,000 кадра/сек
Цветовое пространство : YUV
Субдискретизация насыщенности : 4:2:0
Битовая глубина : 8 бит
Тип развёртки : Прогрессивная
Бит/(Пиксели*Кадры) : 0.149
Размер потока : 1,12 Гбайт (77%)
Заголовок : Всё включено 2
Библиотека кодирования : x264 core 130 r2273 b3065e6
Настройки программы : cabac=1 / ref=10 / deblock=1:-2:-1 / analyse=0x3:0x133 / me=umh / subme=11 / psy=1 / psy_rd=1.07:0.00 / mixed_ref=1 / me_range=48 / chroma_me=1 / trellis=2 / 8x8dct=1 / cqm=0 / deadzone=21,11 / fast_pskip=0 / chroma_qp_offset=-2 / threads=9 / lookahead_threads=7 / sliced_threads=0 / nr=0 / decimate=0 / interlaced=0 / bluray_compat=0 / constrained_intra=0 / bframes=11 / b_pyramid=2 / b_adapt=2 / b_bias=0 / direct=3 / weightb=1 / open_gop=0 / weightp=2 / keyint=250 / keyint_min=23 / scenecut=40 / intra_refresh=0 / rc_lookahead=60 / rc=2pass / mbtree=0 / bitrate=1661 / ratetol=1.0 / qcomp=0.70 / qpmin=0 / qpmax=69 / qpstep=4 / cplxblur=20.0 / qblur=0.5 / vbv_maxrate=20000 / vbv_bufsize=20000 / nal_hrd=none / ip_ratio=1.35 / pb_ratio=1.25 / aq=1:0.80
Язык : Russian
Default : Да
Forced : Нет

Аудио
Идентификатор : 2
Формат : AC-3
Формат/Информация : Audio Coding 3
Расширение режима : CM (complete main)
Параметр Endianness формата : Big
Идентификатор кодека : A_AC3
Продолжительность : 1 ч. 39 м.
Вид битрейта : Постоянный
Битрейт : 448 Кбит/сек
Каналы : 6 каналов
Расположение каналов : Front: L C R, Side: L R, LFE
Частота : 48,0 КГц
Битовая глубина : 16 бит
Метод сжатия : С потерями
Размер потока : 318 Мбайт (21%)
Заголовок : DD 5.1 @ 448 kbps
Язык : Russian
Default : Да
Forced : Нет

Меню
00:00:00.000 : en:(01)00:00:00:000
00:00:37.458 : en:(02)00:00:37:458
00:12:50.375 : en:(03)00:12:50:375
00:21:21.833 : en:(04)00:21:21:833
00:30:07.666 : en:(05)00:30:07:666
00:44:20.916 : en:(06)00:44:20:916
00:58:01.916 : en:(07)00:58:01:916
01:13:14.833 : en:(08)01:13:14:833
01:22:23.041 : en:(09)01:22:23:041

pb.wtf



Скачать Всё включено 2 через торрент http://i60.fastpic.ru/big/2013/1217/d9/e76fefaedbf5b92dbabf63c0ed3e0ad9.png Скачать фильм Всё включено 2 через торрент бесплантно в хорошем качестве Описание: Когда приятель похож на тебя как две капли воды, тут уж грех не поучаствовать в конкурсе двойников и не срубить легкие деньги в ... 9.5 10 21
Info! Золотая раздача, скачанное не засчитывается.
Торрент: Зарегистрирован [2013-12-17 02:59] · скачан: 1 356 раз
Статус: √ проверено
Размер: 1.46 GB
Как cкачать? Как скачать Всё включено 2 через торрент | qTorrent

% Раздел Тема Автор DL S | L
Наши новые фильмы 2013 [ 1.46 GB ] Всё включено 2 [2013 DVDRip] Drakosha Скачать
1 | 0
Наши фильмы (Blu-ray, BD-Remux, HDDVD) [ 17.03 GB ] Всё включено 2 [2013 BD-Remux Оригинал] Бумер Скачать
1 | 0
Наши новые фильмы 2013 [ 2.06 GB ] Всё включено 2 [2013 DVDRip ] coc900 Скачать
1 | 0
Наши фильмы (DVD фильмы) [ 6.07 GB ] Всё включено 2 [2013 DVD9] R5 voovaz Скачать
1 | 0

28-11-2019 20:33  

Отключить всю рекламу на сайте

    Дорогой пользователь! Огромная просьба, поблагодарите релизера, оцените раздачу и оставьте свои комментарий, если Вы скачали Всё включено 2 через торрент бесплатно! Внесите свою лепту в развитие PiratBit!
    Комментировать посты могут только пользователи прошедшие не сложную регистрацию
    Показать сообщения:    

    Всё включено 2 через торрент
    Скачать бесплатно Всё включено 2
    Всё включено 2 скачать торрент
    Всё включено 2 смотреть онлайн
    Cкачать фильм Всё включено 2 бесплатно
    Всё включено 2 скачать торрент в хорошем качестве
    Всё включено 2 смотреть онлайн бесплатно в хорошем качестве


    Вы не можете начинать темы
    Вы не можете отвечать на сообщения
    Вы не можете редактировать свои сообщения
    Вы не можете удалять свои сообщения
    Вы не можете голосовать в опросах
    Вы не можете прикреплять файлы к сообщениям
    Вы можете скачивать файлы