Ссылка на приватное зеркало нашего сайта всего за 1$. Внимание количество ограничено!!!

2 сезон

iTunes

1 сезон

1

iTunes

iTunes

iTunes

1 сезон

RePack

30

ИГРА 18+

pack

ВАЖНО

!!Акция!!

Alien_RageХит недели

RePack

MK11
pack

Забери бонус

RePack

jed

!!Акция!!

Alien_Rage

RePack

fifa19

RePack

Assassins Creed: Odyssey

RePack

NEED FOR SPEED™ PAYBACK

4 сезон

9 сезон

Бесстыжие 9 сезон

Все сериалы

все сериалы на PB.wtf

RePack

FAR CRY 5
  

Долгий поцелуй на ночь / The Long Kiss Goodnight (Ренни Харлин / Renny Harlin) [1996, боевик, BDRip 720p] [DVO] (Гланц и Королева)) + [AVO] (Андрей Гаврилов) + [AVO] (Юрий Живов) pb.wtf

Скачать  

17-12-2013 09:21 Долгий поцелуй на ночь Скачать торрент  

Долгий поцелуй на ночь / The Long Kiss Goodnight

Год выпуска: 1996
Страна: США
Производство: TimeWarner Company.
Жанр: Боевик

Режиссёр: Ренни Харлин
В ролях: Джина Дэвис, Сэмюэл Л. Джексон, Патрик Малахайд, Крэйг Бирко, Брайан Кокс, Дэвид Морс, Дж. Д. Спрэдлин, Том Амандес, Ивонн Зима, Мелина Канакаредес, Алан Норт

Перевод: Профессиональный (двухголосый, закадровый) Гланц и Королева, (авторский одноголосый) Андрея Гаврилова и Юрия Живова
Субтитры: Русские (3 варианта), английские

Описание: 8 лет назад школьная учительница Саманта Кейн перенесла полную потерю памяти. Она живет с 8-летней дочкой счастливой семейной жизнью и не подозревает о своем кровавом прошлом, ведь когда-то эта красивая женщина была агентом Чарли Бэдтимор, выполнявшим секретные заказы ЦРУ.
Шокированная неожиданным возвращением некоторых навыков и психологической подготовки профессионального киллера, Саманта пытается разобраться в своем прошлом. Детектив Митч Хенесси, начавший с расследования жизни простой учительницы, оказывается втянутым вместе с Самантой в секретную операцию ЦРУ.



Бюджет: $65 000 000
Сборы в США: $33 447 612
Сборы в мире: $89 456 761

Качество: BDRip 720p
Продолжительность: 2:00:33 час.

Формат: MKV
Видео кодек: H.264
Аудио кодек: AC3, DTS
Видео: 1280x536 (2.35:1), 23.976 fps, AVC High@L4.1 ~5983 kbps avg, 0.364 bit/pixel
Аудио: 1 - DTS; Rus; 48000Hz; 6ch; 755kbps [Киномания]
2 - DTS; Rus; 48000Hz; 6ch; 755kbps [Гланц и Королева]
3 - Dolby AC3; Rus; 48000Hz; 6ch; 448kbps [Союз-Видео, R5]
4 - Dolby AC3; Rus; 48000Hz; 2ch; 192kbps [Союз-Видео, VHS]
5 - Dolby AC3; Ukr; 48000Hz; 2ch; 192kbps [перевод канала ICTV]
6 - DTS; Rus; 48000Hz; 6ch; 755kbps [Андрей Гаврилов]
7 - DTS; Rus; 48000Hz; 6ch; 755kbps [Юрий Живов]
8 - Dolby AC3; Rus; 48000Hz; 6ch; 384kbps [диктор CDV]
9 - DTS; Eng; 48000Hz; 6ch; 755kbps [оригинал]
General
Unique ID : 225404790161677605829159697992236720514 (0xA993622CEDF325DFAFFBED50AE90E182)
Complete name : E:Долгий поцелуй на ночь.mkv
Format : Matroska
Format version : Version 2
File size : 9.43 GiB
Duration : 2h 0mn
Overall bit rate : 11.2 Mbps
Encoded date : UTC 2011-01-29 13:42:11
Writing application : mkvmerge v4.0.0 ('The Stars were mine') built on Jun 6 2010 16:18:42
Writing library : libebml v1.0.0 + libmatroska v1.0.0

Video
ID : 1
Format : AVC
Format/Info : Advanced Video Codec
Format profile : High@L4.1
Format settings, CABAC : Yes
Format settings, ReFrames : 12 frames
Codec ID : V_MPEG4/ISO/AVC
Duration : 2h 0mn
Width : 1 280 pixels
Height : 536 pixels
Display aspect ratio : 2.40:1
Frame rate mode : Constant
Frame rate : 23.976 fps
Color space : YUV
Chroma subsampling : 4:2:0
Bit depth : 8 bits
Scan type : Progressive
Title : The Long Kiss Goodnight (1996)
Writing library : x264 core 112 r1867 22bfd31
Encoding settings : cabac=1 / ref=12 / deblock=1:-3:-3 / analyse=0x3:0x133 / me=umh / subme=10 / psy=1 / psy_rd=1.00:0.05 / mixed_ref=1 / me_range=32 / chroma_me=1 / trellis=2 / 8x8dct=1 / cqm=0 / deadzone=21,11 / fast_pskip=0 / chroma_qp_offset=-3 / threads=12 / sliced_threads=0 / nr=0 / decimate=0 / interlaced=0 / constrained_intra=0 / bframes=7 / b_pyramid=2 / b_adapt=2 / b_bias=0 / direct=1 / weightb=1 / open_gop=0 / weightp=2 / keyint=250 / keyint_min=23 / scenecut=40 / intra_refresh=0 / rc_lookahead=40 / rc=crf / mbtree=0 / crf=17.0 / qcomp=0.60 / qpmin=0 / qpmax=51 / qpstep=4 / vbv_maxrate=50000 / vbv_bufsize=62500 / crf_max=0.0 / nal_hrd=none / ip_ratio=1.40 / pb_ratio=1.30 / aq=1:0.70
Language : English
Default : Yes
Forced : No
Color primaries : BT.709
Transfer characteristics : BT.709
Matrix coefficients : BT.709

Audio #1
ID : 2
Format : DTS
Format/Info : Digital Theater Systems
Mode : 16
Format settings, Endianness : Big
Codec ID : A_DTS
Duration : 2h 0mn
Bit rate mode : Constant
Bit rate : 755 Kbps
Channel count : 6 channels
Channel positions : Front: L C R, Side: L R, LFE
Sampling rate : 48.0 KHz
Bit depth : 24 bits
Compression mode : Lossy
Stream size : 651 MiB (7%)
Title : Kinomania
Language : Russian
Default : Yes
Forced : Yes

Audio #2
ID : 3
Format : DTS
Format/Info : Digital Theater Systems
Mode : 16
Format settings, Endianness : Big
Codec ID : A_DTS
Duration : 2h 0mn
Bit rate mode : Constant
Bit rate : 755 Kbps
Channel count : 6 channels
Channel positions : Front: L C R, Side: L R, LFE
Sampling rate : 48.0 KHz
Bit depth : 24 bits
Compression mode : Lossy
Stream size : 651 MiB (7%)
Title : Glanz & Koroleva
Language : Russian
Default : No
Forced : No

Audio #3
ID : 4
Format : AC-3
Format/Info : Audio Coding 3
Mode extension : CM (complete main)
Format settings, Endianness : Big
Codec ID : A_AC3
Duration : 2h 0mn
Bit rate mode : Constant
Bit rate : 448 Kbps
Channel count : 6 channels
Channel positions : Front: L C R, Side: L R, LFE
Sampling rate : 48.0 KHz
Bit depth : 16 bits
Compression mode : Lossy
Stream size : 386 MiB (4%)
Title : Soyuz DVD
Language : Russian
Default : No
Forced : No

Audio #4
ID : 5
Format : AC-3
Format/Info : Audio Coding 3
Mode extension : CM (complete main)
Format settings, Endianness : Big
Codec ID : A_AC3
Duration : 2h 0mn
Bit rate mode : Constant
Bit rate : 192 Kbps
Channel count : 2 channels
Channel positions : Front: L R
Sampling rate : 48.0 KHz
Bit depth : 16 bits
Compression mode : Lossy
Stream size : 166 MiB (2%)
Title : Soyuz VHS
Language : Russian
Default : No
Forced : No

Audio #5
ID : 6
Format : AC-3
Format/Info : Audio Coding 3
Mode extension : CM (complete main)
Format settings, Endianness : Big
Codec ID : A_AC3
Duration : 2h 0mn
Bit rate mode : Constant
Bit rate : 192 Kbps
Channel count : 2 channels
Channel positions : Front: L R
Sampling rate : 48.0 KHz
Bit depth : 16 bits
Compression mode : Lossy
Stream size : 166 MiB (2%)
Title : ICTV
Language : Ukrainian
Default : No
Forced : No

Audio #6
ID : 7
Format : DTS
Format/Info : Digital Theater Systems
Mode : 16
Format settings, Endianness : Big
Codec ID : A_DTS
Duration : 2h 0mn
Bit rate mode : Constant
Bit rate : 755 Kbps
Channel count : 6 channels
Channel positions : Front: L C R, Side: L R, LFE
Sampling rate : 48.0 KHz
Bit depth : 24 bits
Compression mode : Lossy
Stream size : 651 MiB (7%)
Title : Gavrilov
Language : Russian
Default : No
Forced : No

Audio #7
ID : 8
Format : DTS
Format/Info : Digital Theater Systems
Codec ID : A_DTS
Duration : 2h 0mn
Channel count : 6 channels
Sampling rate : 48.0 KHz
Compression mode : Lossy
Title : Zjivov
Language : Russian
Default : No
Forced : No

Audio #8
ID : 9
Format : AC-3
Format/Info : Audio Coding 3
Codec ID : A_AC3
Duration : 2h 0mn
Channel count : 6 channels
Sampling rate : 48.0 KHz
Compression mode : Lossy
Title : CDV
Language : Russian
Default : No
Forced : No

Audio #9
ID : 14
Format : DTS
Format/Info : Digital Theater Systems
Codec ID : A_DTS
Duration : 2h 0mn
Channel count : 6 channels
Sampling rate : 48.0 KHz
Compression mode : Lossy
Title : Eng
Language : English
Default : No
Forced : No

Text #1
ID : 10
Format : UTF-8
Codec ID : S_TEXT/UTF8
Codec ID/Info : UTF-8 Plain Text
Title : Kinomania
Language : Russian
Default : No
Forced : No

Text #2
ID : 11
Format : UTF-8
Codec ID : S_TEXT/UTF8
Codec ID/Info : UTF-8 Plain Text
Title : Soyuz DVD
Language : Russian
Default : No
Forced : No

Text #3
ID : 12
Format : UTF-8
Codec ID : S_TEXT/UTF8
Codec ID/Info : UTF-8 Plain Text
Title : Prestij
Language : Russian
Default : No
Forced : No

Text #4
ID : 13
Format : UTF-8
Codec ID : S_TEXT/UTF8
Codec ID/Info : UTF-8 Plain Text
Title : Eng
Language : English
Default : No
Forced : No

Menu
00:00:00.000 : en:00:00:00.000
00:09:05.920 : en:00:09:05.920
00:22:07.034 : en:00:22:07.034
00:32:35.871 : en:00:32:35.871
00:47:33.934 : en:00:47:33.934
01:03:52.704 : en:01:03:52.704
01:15:14.593 : en:01:15:14.593
01:28:16.208 : en:01:28:16.208
01:36:53.850 : en:01:36:53.850
01:47:25.022 : en:01:47:25.022
pb.wtf



28-11-2019 20:33  

Отключить всю рекламу на сайте

    Дорогой пользователь! Огромная просьба, поблагодарите релизера, оцените раздачу и оставьте свои комментарий, если Вы скачали Долгий поцелуй на ночь через торрент бесплатно! Внесите свою лепту в развитие PiratBit!
    Комментировать посты могут только пользователи прошедшие не сложную регистрацию
    Показать сообщения:    

    Долгий поцелуй на ночь через торрент
    Скачать бесплатно Долгий поцелуй на ночь
    Долгий поцелуй на ночь скачать торрент
    Долгий поцелуй на ночь смотреть онлайн
    Cкачать фильм Долгий поцелуй на ночь бесплатно
    Долгий поцелуй на ночь скачать торрент в хорошем качестве
    Долгий поцелуй на ночь смотреть онлайн бесплатно в хорошем качестве


    Вы не можете начинать темы
    Вы не можете отвечать на сообщения
    Вы не можете редактировать свои сообщения
    Вы не можете удалять свои сообщения
    Вы не можете голосовать в опросах
    Вы не можете прикреплять файлы к сообщениям
    Вы можете скачивать файлы