2 сезон

iTunes

1 сезон

1

iTunes

iTunes

iTunes

1 сезон

RePack

30

ИГРА 18+

pack

ВАЖНО

!!Акция!!

Alien_RageХит недели

RePack

MK11
pack

Забери бонус

RePack

jed

!!Акция!!

Alien_Rage

RePack

fifa19

RePack

Assassins Creed: Odyssey

RePack

NEED FOR SPEED™ PAYBACK

4 сезон

9 сезон

Бесстыжие 9 сезон

Все сериалы

все сериалы на PB.wtf

RePack

FAR CRY 5
  

(Score / Soundtrack) Advent Rising - Music from the Video Game (by Tommy Tallarico, Michael Richard Plowman, Charlotte Martin) - 2005, FLAC (tracks+.cue), lossless pb.wtf

через торрент pb.wtf

Размер: 341 MB | Добавлен: 6 лет 10 мес. назад | Торрент скачан:19 раз
Скачать  

17-12-2013 13:16 Скачать торрент  

Advent Rising - Music from the Video Game

Страна: США
Жанр: Soundtrack
Лейбл: Sumthing Else Music Works
Дата выпуска: 2005
Формат: FLAC (tracks)
Битрейт: lossless
Продолжительность: 00:57:31
Наличие сканов в содержимом раздачи: да
01. Muse [00:03:08]
02. Poeta [00:03:36]
03. Bounty Hunter [00:03:05]
04. Aurelia [00:03:03]
05. Greater Lights [Feat. Charlotte Martin] [00:03:52]
06. Glorious Human [00:01:46]
07. Stolen Transport [00:02:15]
08. Canyon Encounter [00:02:04]
09. The Rise Of Aurelia [00:02:01]
10. Edumeas Last Stand [00:02:04]
11. Aurelian Conflict [00:02:04]
12. The Aurelian Movement [00:02:21]
13. Luriam Down [00:01:04]
14. The Human Movement [00:02:09]
15. Human Demise [00:01:35]
16. Seeker Assault [00:02:05]
17. Midst Of The N'Kul [00:00:34]
18. Seeker Horde [00:01:04]
19. Fiery Arrival On Aurelia [00:00:55]
20. Power Within [00:02:11]
21. Fortified Strength [00:01:01]
22. Mastery Of Self [00:02:20]
23. Return To Humanity [00:02:16]
24. The Seeker Movement [00:02:09]
25. Seeker Unrest [00:02:05]
26. Conquest [00:00:36]
27. Greater Lights (Jay-J's Shifted Up Mix) [Feat. Charlotte Martin] [00:03:58]
Exact Audio Copy V1.0 beta 2 from 29. April 2011

EAC extraction logfile from 6. September 2012, 18:10

Tommy Tallarico, Michael Richard Plowman / Advent Rising - Music from the Video Game

Used drive : TSSTcorpCDDVDW SH-S222A Adapter: 4 ID: 0

Read mode : Secure
Utilize accurate stream : Yes
Defeat audio cache : Yes
Make use of C2 pointers : No

Read offset correction : 6
Overread into Lead-In and Lead-Out : No
Fill up missing offset samples with silence : Yes
Delete leading and trailing silent blocks : No
Null samples used in CRC calculations : Yes
Used interface : Native Win32 interface for Win NT & 2000
Gap handling : Appended to previous track

Used output format : User Defined Encoder
Selected bitrate : 128 kBit/s
Quality : High
Add ID3 tag : No
Command line compressor : C:Program Files (x86)Exact Audio CopyFlacflac.exe
Additional command line options : -V -8 -T "Genre=%genre%" -T "Artist=%artist%" -T "Title=%title%" -T "Album=%albumtitle%" -T "Date=%year%" -T "Tracknumber=%tracknr%" -T "Comment=%comment%" %source%

TOC of the extracted CD

Track | Start | Length | Start sector | End sector
---------------------------------------------------------
1 | 0:00.00 | 3:08.11 | 0 | 14110
2 | 3:08.11 | 3:36.13 | 14111 | 30323
3 | 6:44.24 | 3:05.42 | 30324 | 44240
4 | 9:49.66 | 3:03.56 | 44241 | 58021
5 | 12:53.47 | 3:52.24 | 58022 | 75445
6 | 16:45.71 | 1:46.55 | 75446 | 83450
7 | 18:32.51 | 2:15.07 | 83451 | 93582
8 | 20:47.58 | 2:04.28 | 93583 | 102910
9 | 22:52.11 | 2:01.40 | 102911 | 112025
10 | 24:53.51 | 2:04.10 | 112026 | 121335
11 | 26:57.61 | 2:04.33 | 121336 | 130668
12 | 29:02.19 | 2:21.04 | 130669 | 141247
13 | 31:23.23 | 1:04.48 | 141248 | 146095
14 | 32:27.71 | 2:09.09 | 146096 | 155779
15 | 34:37.05 | 1:35.26 | 155780 | 162930
16 | 36:12.31 | 2:05.06 | 162931 | 172311
17 | 38:17.37 | 0:34.40 | 172312 | 174901
18 | 38:52.02 | 1:04.50 | 174902 | 179751
19 | 39:56.52 | 0:55.08 | 179752 | 183884
20 | 40:51.60 | 2:11.17 | 183885 | 193726
21 | 43:03.02 | 1:01.00 | 193727 | 198301
22 | 44:04.02 | 2:20.10 | 198302 | 208811
23 | 46:24.12 | 2:16.30 | 208812 | 219041
24 | 48:40.42 | 2:09.52 | 219042 | 228768
25 | 50:50.19 | 2:05.18 | 228769 | 238161
26 | 52:55.37 | 0:36.49 | 238162 | 240910
27 | 53:32.11 | 3:58.68 | 240911 | 258828

Track 1

Filename C:SpybionicAdvent Rising - Music from the Video Game - 2005 - Tommy Tallarico, Michael Richard Plowman�1. Muse.wav

Pre-gap length 0:00:02.00

Peak level 93.3 %
Extraction speed 4.1 X
Track quality 100.0 %
Test CRC 2B133CE2
Copy CRC 2B133CE2
Accurately ripped (confidence 5) [A73180B9] (AR v1)
Copy OK

Track 2

Filename C:SpybionicAdvent Rising - Music from the Video Game - 2005 - Tommy Tallarico, Michael Richard Plowman�2. Poeta.wav

Peak level 93.3 %
Extraction speed 4.6 X
Track quality 100.0 %
Test CRC A8F89782
Copy CRC A8F89782
Accurately ripped (confidence 5) [07718790] (AR v1)
Copy OK

Track 3

Filename C:SpybionicAdvent Rising - Music from the Video Game - 2005 - Tommy Tallarico, Michael Richard Plowman�3. Bounty Hunter.wav

Peak level 93.3 %
Extraction speed 4.2 X
Track quality 99.9 %
Test CRC ED9190AE
Copy CRC ED9190AE
Accurately ripped (confidence 5) [1839DB87] (AR v1)
Copy OK

Track 4

Filename C:SpybionicAdvent Rising - Music from the Video Game - 2005 - Tommy Tallarico, Michael Richard Plowman�4. Aurelia.wav

Peak level 96.6 %
Extraction speed 5.1 X
Track quality 100.0 %
Test CRC 0F314AB5
Copy CRC 0F314AB5
Accurately ripped (confidence 5) [C1C64C85] (AR v1)
Copy OK

Track 5

Filename C:SpybionicAdvent Rising - Music from the Video Game - 2005 - Tommy Tallarico, Michael Richard Plowman�5. Greater Lights [Feat. Charlotte Martin].wav

Peak level 66.0 %
Extraction speed 5.7 X
Track quality 100.0 %
Test CRC 1116A17D
Copy CRC 1116A17D
Accurately ripped (confidence 5) [26F24B97] (AR v1)
Copy OK

Track 6

Filename C:SpybionicAdvent Rising - Music from the Video Game - 2005 - Tommy Tallarico, Michael Richard Plowman�6. Glorious Human.wav

Peak level 96.6 %
Extraction speed 5.0 X
Track quality 100.0 %
Test CRC AB47818A
Copy CRC AB47818A
Accurately ripped (confidence 5) [9FE0139A] (AR v1)
Copy OK

Track 7

Filename C:SpybionicAdvent Rising - Music from the Video Game - 2005 - Tommy Tallarico, Michael Richard Plowman�7. Stolen Transport.wav

Peak level 93.3 %
Extraction speed 4.5 X
Track quality 99.9 %
Test CRC 91F2579A
Copy CRC 91F2579A
Accurately ripped (confidence 5) [C6758EC9] (AR v1)
Copy OK

Track 8

Filename C:SpybionicAdvent Rising - Music from the Video Game - 2005 - Tommy Tallarico, Michael Richard Plowman�8. Canyon Encounter.wav

Peak level 93.3 %
Extraction speed 5.6 X
Track quality 100.0 %
Test CRC 669FE521
Copy CRC 669FE521
Accurately ripped (confidence 5) [122038C1] (AR v1)
Copy OK

Track 9

Filename C:SpybionicAdvent Rising - Music from the Video Game - 2005 - Tommy Tallarico, Michael Richard Plowman�9. The Rise Of Aurelia.wav

Peak level 93.3 %
Extraction speed 5.6 X
Track quality 100.0 %
Test CRC 4086C619
Copy CRC 4086C619
Accurately ripped (confidence 5) [474A27AA] (AR v1)
Copy OK

Track 10

Filename C:SpybionicAdvent Rising - Music from the Video Game - 2005 - Tommy Tallarico, Michael Richard Plowman10. Edumeas Last Stand.wav

Peak level 96.0 %
Extraction speed 4.7 X
Track quality 99.9 %
Test CRC A2290DE5
Copy CRC A2290DE5
Accurately ripped (confidence 5) [58C8A8D2] (AR v1)
Copy OK

Track 11

Filename C:SpybionicAdvent Rising - Music from the Video Game - 2005 - Tommy Tallarico, Michael Richard Plowman11. Aurelian Conflict.wav

Peak level 93.3 %
Extraction speed 5.9 X
Track quality 100.0 %
Test CRC B9906260
Copy CRC B9906260
Accurately ripped (confidence 5) [2E270215] (AR v1)
Copy OK

Track 12

Filename C:SpybionicAdvent Rising - Music from the Video Game - 2005 - Tommy Tallarico, Michael Richard Plowman12. The Aurelian Movement.wav

Peak level 93.3 %
Extraction speed 5.2 X
Track quality 99.9 %
Test CRC 7829A091
Copy CRC 7829A091
Accurately ripped (confidence 5) [6B8EA3E6] (AR v1)
Copy OK

Track 13

Filename C:SpybionicAdvent Rising - Music from the Video Game - 2005 - Tommy Tallarico, Michael Richard Plowman13. Luriam Down.wav

Peak level 96.6 %
Extraction speed 5.1 X
Track quality 100.0 %
Test CRC 04021572
Copy CRC 04021572
Accurately ripped (confidence 5) [C95D1A77] (AR v1)
Copy OK

Track 14

Filename C:SpybionicAdvent Rising - Music from the Video Game - 2005 - Tommy Tallarico, Michael Richard Plowman14. The Human Movement.wav

Peak level 93.3 %
Extraction speed 5.2 X
Track quality 99.9 %
Test CRC D82E2DD9
Copy CRC D82E2DD9
Accurately ripped (confidence 5) [67991053] (AR v1)
Copy OK

Track 15

Filename C:SpybionicAdvent Rising - Music from the Video Game - 2005 - Tommy Tallarico, Michael Richard Plowman15. Human Demise.wav

Peak level 93.3 %
Extraction speed 6.0 X
Track quality 100.0 %
Test CRC EBC2311F
Copy CRC EBC2311F
Accurately ripped (confidence 5) [BE78F8C9] (AR v1)
Copy OK

Track 16

Filename C:SpybionicAdvent Rising - Music from the Video Game - 2005 - Tommy Tallarico, Michael Richard Plowman16. Seeker Assault.wav

Peak level 93.3 %
Extraction speed 6.6 X
Track quality 100.0 %
Test CRC 5259EC0B
Copy CRC 5259EC0B
Accurately ripped (confidence 5) [190E8506] (AR v1)
Copy OK

Track 17

Filename C:SpybionicAdvent Rising - Music from the Video Game - 2005 - Tommy Tallarico, Michael Richard Plowman17. Midst Of The N'Kul.wav

Peak level 93.3 %
Extraction speed 2.7 X
Track quality 99.6 %
Test CRC D6B5FF21
Copy CRC D6B5FF21
Accurately ripped (confidence 5) [2F2A8720] (AR v1)
Copy OK

Track 18

Filename C:SpybionicAdvent Rising - Music from the Video Game - 2005 - Tommy Tallarico, Michael Richard Plowman18. Seeker Horde.wav

Peak level 93.3 %
Extraction speed 5.4 X
Track quality 100.0 %
Test CRC 35A8ACC5
Copy CRC 35A8ACC5
Accurately ripped (confidence 5) [0AC869A3] (AR v1)
Copy OK

Track 19

Filename C:SpybionicAdvent Rising - Music from the Video Game - 2005 - Tommy Tallarico, Michael Richard Plowman19. Fiery Arrival On Aurelia.wav

Peak level 93.3 %
Extraction speed 3.6 X
Track quality 99.8 %
Test CRC 6CDD81CB
Copy CRC 6CDD81CB
Accurately ripped (confidence 5) [C47E829C] (AR v1)
Copy OK

Track 20

Filename C:SpybionicAdvent Rising - Music from the Video Game - 2005 - Tommy Tallarico, Michael Richard Plowman20. Power Within.wav

Peak level 93.3 %
Extraction speed 6.9 X
Track quality 100.0 %
Test CRC B901C47D
Copy CRC B901C47D
Accurately ripped (confidence 5) [35B4E63F] (AR v1)
Copy OK

Track 21

Filename C:SpybionicAdvent Rising - Music from the Video Game - 2005 - Tommy Tallarico, Michael Richard Plowman21. Fortified Strength.wav

Peak level 84.6 %
Extraction speed 5.4 X
Track quality 100.0 %
Test CRC 5B8FD3D0
Copy CRC 5B8FD3D0
Accurately ripped (confidence 5) [36995607] (AR v1)
Copy OK

Track 22

Filename C:SpybionicAdvent Rising - Music from the Video Game - 2005 - Tommy Tallarico, Michael Richard Plowman22. Mastery Of Self.wav

Peak level 93.3 %
Extraction speed 7.1 X
Track quality 100.0 %
Test CRC 02E0B6EB
Copy CRC 02E0B6EB
Accurately ripped (confidence 5) [29055DB9] (AR v1)
Copy OK

Track 23

Filename C:SpybionicAdvent Rising - Music from the Video Game - 2005 - Tommy Tallarico, Michael Richard Plowman23. Return To Humanity.wav

Peak level 93.3 %
Extraction speed 7.2 X
Track quality 100.0 %
Test CRC 421CBA70
Copy CRC 421CBA70
Accurately ripped (confidence 5) [4F396C95] (AR v1)
Copy OK

Track 24

Filename C:SpybionicAdvent Rising - Music from the Video Game - 2005 - Tommy Tallarico, Michael Richard Plowman24. The Seeker Movement.wav

Peak level 93.3 %
Extraction speed 7.3 X
Track quality 100.0 %
Test CRC 13E5CDCC
Copy CRC 13E5CDCC
Accurately ripped (confidence 5) [861D5FFB] (AR v1)
Copy OK

Track 25

Filename C:SpybionicAdvent Rising - Music from the Video Game - 2005 - Tommy Tallarico, Michael Richard Plowman25. Seeker Unrest.wav

Peak level 93.3 %
Extraction speed 7.3 X
Track quality 100.0 %
Test CRC 3B9909DD
Copy CRC 3B9909DD
Accurately ripped (confidence 5) [15C73E36] (AR v1)
Copy OK

Track 26

Filename C:SpybionicAdvent Rising - Music from the Video Game - 2005 - Tommy Tallarico, Michael Richard Plowman26. Conquest.wav

Peak level 83.1 %
Extraction speed 4.7 X
Track quality 100.0 %
Test CRC 99B0E0BB
Copy CRC 99B0E0BB
Accurately ripped (confidence 5) [D890ED44] (AR v1)
Copy OK

Track 27

Filename C:SpybionicAdvent Rising - Music from the Video Game - 2005 - Tommy Tallarico, Michael Richard Plowman27. Greater Lights (Jay-J's Shifted Up Mix) [Feat. Charlotte Martin].wav

Peak level 83.1 %
Extraction speed 8.5 X
Track quality 100.0 %
Test CRC B0B968F9
Copy CRC B0B968F9
Accurately ripped (confidence 5) [3D019DBB] (AR v1)
Copy OK

All tracks accurately ripped

No errors occurred

End of status report

==== Log checksum AABC6E5F828798EFC7F24FBE02C474B61F49E84AB51B3F1F9BBE9428EE8A8E02 ====
REM GENRE Soundtrack
REM DATE 2005
REM DISCID A00D7B1B
REM COMMENT "ExactAudioCopy v1.0b2"
PERFORMER "Tommy Tallarico, Michael Richard Plowman"
TITLE "Advent Rising - Music from the Video Game"
FILE "01. Muse.wav" WAVE
TRACK 01 AUDIO
TITLE "Muse"
PERFORMER "Tommy Tallarico, Michael Richard Plowman"
INDEX 01 00:00:00
FILE "02. Poeta.wav" WAVE
TRACK 02 AUDIO
TITLE "Poeta"
PERFORMER "Tommy Tallarico, Michael Richard Plowman"
INDEX 01 00:00:00
FILE "03. Bounty Hunter.wav" WAVE
TRACK 03 AUDIO
TITLE "Bounty Hunter"
PERFORMER "Tommy Tallarico, Michael Richard Plowman"
INDEX 01 00:00:00
FILE "04. Aurelia.wav" WAVE
TRACK 04 AUDIO
TITLE "Aurelia"
PERFORMER "Tommy Tallarico, Michael Richard Plowman"
INDEX 01 00:00:00
FILE "05. Greater Lights [Feat. Charlotte Martin].wav" WAVE
TRACK 05 AUDIO
TITLE "Greater Lights [Feat. Charlotte Martin]"
PERFORMER "Tommy Tallarico, Michael Richard Plowman"
INDEX 01 00:00:00
FILE "06. Glorious Human.wav" WAVE
TRACK 06 AUDIO
TITLE "Glorious Human"
PERFORMER "Tommy Tallarico, Michael Richard Plowman"
INDEX 01 00:00:00
FILE "07. Stolen Transport.wav" WAVE
TRACK 07 AUDIO
TITLE "Stolen Transport"
PERFORMER "Tommy Tallarico, Michael Richard Plowman"
INDEX 01 00:00:00
FILE "08. Canyon Encounter.wav" WAVE
TRACK 08 AUDIO
TITLE "Canyon Encounter"
PERFORMER "Tommy Tallarico, Michael Richard Plowman"
INDEX 01 00:00:00
FILE "09. The Rise Of Aurelia.wav" WAVE
TRACK 09 AUDIO
TITLE "The Rise Of Aurelia"
PERFORMER "Tommy Tallarico, Michael Richard Plowman"
INDEX 01 00:00:00
FILE "10. Edumeas Last Stand.wav" WAVE
TRACK 10 AUDIO
TITLE "Edumeas Last Stand"
PERFORMER "Tommy Tallarico, Michael Richard Plowman"
INDEX 01 00:00:00
FILE "11. Aurelian Conflict.wav" WAVE
TRACK 11 AUDIO
TITLE "Aurelian Conflict"
PERFORMER "Tommy Tallarico, Michael Richard Plowman"
INDEX 01 00:00:00
FILE "12. The Aurelian Movement.wav" WAVE
TRACK 12 AUDIO
TITLE "The Aurelian Movement"
PERFORMER "Tommy Tallarico, Michael Richard Plowman"
INDEX 01 00:00:00
FILE "13. Luriam Down.wav" WAVE
TRACK 13 AUDIO
TITLE "Luriam Down"
PERFORMER "Tommy Tallarico, Michael Richard Plowman"
INDEX 01 00:00:00
FILE "14. The Human Movement.wav" WAVE
TRACK 14 AUDIO
TITLE "The Human Movement"
PERFORMER "Tommy Tallarico, Michael Richard Plowman"
INDEX 01 00:00:00
FILE "15. Human Demise.wav" WAVE
TRACK 15 AUDIO
TITLE "Human Demise"
PERFORMER "Tommy Tallarico, Michael Richard Plowman"
INDEX 01 00:00:00
FILE "16. Seeker Assault.wav" WAVE
TRACK 16 AUDIO
TITLE "Seeker Assault"
PERFORMER "Tommy Tallarico, Michael Richard Plowman"
INDEX 01 00:00:00
FILE "17. Midst Of The N'Kul.wav" WAVE
TRACK 17 AUDIO
TITLE "Midst Of The N'Kul"
PERFORMER "Tommy Tallarico, Michael Richard Plowman"
INDEX 01 00:00:00
FILE "18. Seeker Horde.wav" WAVE
TRACK 18 AUDIO
TITLE "Seeker Horde"
PERFORMER "Tommy Tallarico, Michael Richard Plowman"
INDEX 01 00:00:00
FILE "19. Fiery Arrival On Aurelia.wav" WAVE
TRACK 19 AUDIO
TITLE "Fiery Arrival On Aurelia"
PERFORMER "Tommy Tallarico, Michael Richard Plowman"
INDEX 01 00:00:00
FILE "20. Power Within.wav" WAVE
TRACK 20 AUDIO
TITLE "Power Within"
PERFORMER "Tommy Tallarico, Michael Richard Plowman"
INDEX 01 00:00:00
FILE "21. Fortified Strength.wav" WAVE
TRACK 21 AUDIO
TITLE "Fortified Strength"
PERFORMER "Tommy Tallarico, Michael Richard Plowman"
INDEX 01 00:00:00
FILE "22. Mastery Of Self.wav" WAVE
TRACK 22 AUDIO
TITLE "Mastery Of Self"
PERFORMER "Tommy Tallarico, Michael Richard Plowman"
INDEX 01 00:00:00
FILE "23. Return To Humanity.wav" WAVE
TRACK 23 AUDIO
TITLE "Return To Humanity"
PERFORMER "Tommy Tallarico, Michael Richard Plowman"
INDEX 01 00:00:00
FILE "24. The Seeker Movement.wav" WAVE
TRACK 24 AUDIO
TITLE "The Seeker Movement"
PERFORMER "Tommy Tallarico, Michael Richard Plowman"
INDEX 01 00:00:00
FILE "25. Seeker Unrest.wav" WAVE
TRACK 25 AUDIO
TITLE "Seeker Unrest"
PERFORMER "Tommy Tallarico, Michael Richard Plowman"
INDEX 01 00:00:00
FILE "26. Conquest.wav" WAVE
TRACK 26 AUDIO
TITLE "Conquest"
PERFORMER "Tommy Tallarico, Michael Richard Plowman"
INDEX 01 00:00:00
FILE "27. Greater Lights (Jay-J's Shifted Up Mix) [Feat. Charlotte Martin].wav" WAVE
TRACK 27 AUDIO
TITLE "Greater Lights (Jay-J's Shifted Up Mix) [Feat. Charlotte Martin]"
PERFORMER "Tommy Tallarico, Michael Richard Plowman"
INDEX 01 00:00:00
pb.wtf



Скачать через торрент http://pic.kartinco.top/images/6/8jms3.jpg Скачать фильм через торрент бесплантно в хорошем качестве Треклист Muse [00:03:08] Poeta [00:03:36] Bounty Hunter [00:03:05] Aurelia [00:03:03] Greater Lights [Feat. Charlotte ... 10 10 4
Info! Золотая раздача, скачанное не засчитывается.
Торрент: Зарегистрирован [2013-12-17 13:16] · скачан: 19 раз
Статус: √ проверено
Размер: 341 MB
Как cкачать? Как скачать через торрент | qTorrent

% Раздел Тема Автор DL S | L
Classic Rock & Hard Rock (lossless) [ 2.68 GB ] EVANESCENCE Дискография - 1998-2007 FLAC lossless ser_1985 Скачать
1 | 0
Eurodance, Technopop, Disco (lossless) [ 1.86 GB ] Dr. Alban Студийные альбомы - 5CD [FLAC lossless] tauras Скачать
1 | 0
Action FPS (1st Person) [ 8.89 GB ] Star Wars: The Force Unleashed - Ultimate Sith Edition [Lossless Repack RU/EN] от Druid =Чувак= Скачать
1 | 0
Архив (Alternative, Punk, Independent) [ 1.74 GB ] Breaking Benjamin - Дискография - 2001-2009 FLAC lossless King_IS_Back Скачать
1 | 0
Гоночные симуляторы [ 3.18 GB ] Дальнобойщик​и 3: Золотое Издание [Lossless Repack RU] от R.G. Catalyst roman3310i Скачать
1 | 0
Архив (Многоканальная музыка и собственные оцифровки) [ 405 MB ] Black Sabbath -Heaven & hell - 1980 DTS lossless staryirocker Скачать
1 | 0
RTS (стратегии в реальном времени) [ 4.21 GB ] Command & Conquer 4: Tiberian Twilight [Lossless RePackRUEA] Alex_Zeyn Скачать
2 | 0

28-11-2019 20:33  

Отключить всю рекламу на сайте

    Дорогой пользователь! Огромная просьба, поблагодарите релизера, оцените раздачу и оставьте свои комментарий, если Вы скачали через торрент бесплатно! Внесите свою лепту в развитие PiratBit!
    Комментировать посты могут только пользователи прошедшие не сложную регистрацию
    Показать сообщения:    

    через торрент
    Скачать бесплатно
    скачать торрент
    смотреть онлайн
    Cкачать фильм бесплатно
    скачать торрент в хорошем качестве
    смотреть онлайн бесплатно в хорошем качестве


    Вы не можете начинать темы
    Вы не можете отвечать на сообщения
    Вы не можете редактировать свои сообщения
    Вы не можете удалять свои сообщения
    Вы не можете голосовать в опросах
    Вы не можете прикреплять файлы к сообщениям
    Вы можете скачивать файлы