2 сезон

iTunes

MVO

1

2 сезон

iTunes

iTunes

1 сезон

RePack

30

Ultimate

ВАЖНО

ИГРА 18+

pack

RePack

MK11
pack

Легкие деньги

RePack

jed

RePack

fifa19

RePack

RDR2

RePack

NEED FOR SPEED™ PAYBACK

4 сезон

9 сезон

Бесстыжие 9 сезон

Все сериалы

все сериалы на PB.wtf

RePack

FAR CRY 5

Anonymous, доброе утро, мы не успеваем собрать деньги на оплату серверов за декабрь и январь, помогите нам пожалуйста в это трудное время. В качестве благодарности мы отключим Вам всю рекламу на сайте (укажите свой ник в строку Ваше имя)!

×
  
Magnet ссылка

Соблазнитель 2 / Kokowaah 2 (Тиль Швайгер, Торстен Кюнстлер) [2013 г., Комедия, семейный, BDRip-AVC, Дубляж, Лицензия] pb.wtf

Соблазнитель 2 через торрент pb.wtf

Раздают: 1 [ 0 KB/s ]
Размер: 2.91 GB | Добавлен: 7 лет 1 мес. назад | Торрент скачан:1523 раза
Скачать  

17-12-2013 19:42 Соблазнитель 2 Скачать торрент  

Соблазнитель 2 / Kokowaah 2
Год выпуска: 2013
Страна: Германия / Warner Bros. GmbH, barefoot films
Жанр: Комедия, семейный,
Продолжительность: 02:02:28
Перевод: Дубляж, Лицензия
Субтитры: Английские, немецкие

Режиссер: Тиль Швайгер Торстен Кюнстлер



В ролях: Тиль Швайгер, Эмма Швайгер, Самуэль Финци, Жасмин Герат, Маурицио Магно, Маттиас Швайгхефер, Михаэль Островский, Яна Рейнерманн, Гедеон Буркхард, Юлия Йенч,

Описание: Генри — в прошлом известный ловелас. Однако пришло время забыть о прежних привычках и стать прилежным семьянином. Дети, бывший муж Катарины, Тристан со своей привлекательной подружкой, молодая няня, истеричный директор студии — все они превращают жизнь Генри в череду смешных, порой неловких ситуаций. Как найти время на всех и в то же время побороть инстинкты, ведь вокруг столько соблазнов…

Качество: BDRip-AVC
Формат: MKV
Видео кодек: H.264
Аудио кодек: AC3
Видео: 1040x442 (2,35:1), 23.976 fps, 2507 Кbps, 0.227 bit/pixel
Аудио#1: 48 kHz, AC3 Dolby Digital, 3/2 (L,C,R,l,r) + LFE ch, 448.00 kbps | RUS
Аудио#2: 48 kHz, AC3 Dolby Digital, 3/2 (L,C,R,l,r) + LFE ch, 448.00 kbps | GER

Релиз группы:
Автор рипа: potroks





Общее
Уникальный идентификатор : 239473080245524238893748208309246015608 (0xB428D66DBC9D174897FA496FAF2EB878)
Полное имя : Soblaznitel'.2.2013.DUAL.BDRip.x264.-HELLYWOOD.mkv
Формат : Matroska
Версия формата : Version 4 / Version 2
Размер файла : 2,91 Гбайт
Продолжительность : 2 ч. 2 м.
Общий поток : 3402 Кбит/сек
Название фильма : HELLYWOOD - rip by potroks
Дата кодирования : UTC 2013-12-17 19:24:15
Программа кодирования : mkvmerge v5.9.0 ('On The Loose') built on Dec 15 2012 16:39:58
Библиотека кодирования : libebml v1.3.0 + libmatroska v1.4.0

Видео
Идентификатор : 1
Формат : AVC
Формат/Информация : Advanced Video Codec
Профиль формата : High@L4.1
Параметр CABAC формата : Да
Параметр ReFrames формата : 10 кадров
Идентификатор кодека : V_MPEG4/ISO/AVC
Продолжительность : 2 ч. 2 м.
Битрейт : 2507 Кбит/сек
Ширина : 1040 пикселей
Высота : 442 пикселя
Соотношение сторон : 2,35:1
Режим частоты кадров : Постоянный
Частота кадров : 23,976 кадра/сек
Цветовое пространство : YUV
Субдискретизация насыщенности : 4:2:0
Битовая глубина : 8 бит
Тип развёртки : Прогрессивная
Бит/(Пиксели*Кадры) : 0.227
Размер потока : 2,09 Гбайт (72%)
Заголовок : Kokowaah 2
Библиотека кодирования : x264 core 130 r2273 b3065e6
Настройки программы : cabac=1 / ref=10 / deblock=1:-3:-2 / analyse=0x3:0x133 / me=umh / subme=11 / psy=1 / psy_rd=1.04:0.00 / mixed_ref=1 / me_range=32 / chroma_me=1 / trellis=2 / 8x8dct=1 / cqm=0 / deadzone=21,11 / fast_pskip=0 / chroma_qp_offset=-2 / threads=8 / lookahead_threads=2 / sliced_threads=0 / nr=0 / decimate=1 / interlaced=0 / bluray_compat=0 / constrained_intra=0 / bframes=11 / b_pyramid=2 / b_adapt=2 / b_bias=0 / direct=3 / weightb=1 / open_gop=0 / weightp=2 / keyint=250 / keyint_min=23 / scenecut=40 / intra_refresh=0 / rc_lookahead=60 / rc=2pass / mbtree=0 / bitrate=2507 / ratetol=1.0 / qcomp=0.70 / qpmin=0 / qpmax=69 / qpstep=4 / cplxblur=20.0 / qblur=0.5 / vbv_maxrate=20000 / vbv_bufsize=25000 / nal_hrd=none / ip_ratio=1.35 / pb_ratio=1.35 / aq=2:0.80
Язык : German
Default : Да
Forced : Нет

Аудио #1
Идентификатор : 2
Формат : AC-3
Формат/Информация : Audio Coding 3
Расширение режима : CM (complete main)
Параметр Endianness формата : Big
Идентификатор кодека : A_AC3
Продолжительность : 2 ч. 2 м.
Вид битрейта : Постоянный
Битрейт : 448 Кбит/сек
Каналы : 6 каналов
Расположение каналов : Front: L C R, Side: L R, LFE
Частота : 48,0 КГц
Битовая глубина : 16 бит
Метод сжатия : С потерями
Размер потока : 392 Мбайт (13%)
Заголовок : Dub | DD 5.1 @ 448 kbps
Язык : Russian
Default : Да
Forced : Да

Аудио #2
Идентификатор : 3
Формат : AC-3
Формат/Информация : Audio Coding 3
Расширение режима : CM (complete main)
Параметр Endianness формата : Big
Идентификатор кодека : A_AC3
Продолжительность : 2 ч. 2 м.
Вид битрейта : Постоянный
Битрейт : 448 Кбит/сек
Каналы : 6 каналов
Расположение каналов : Front: L C R, Side: L R, LFE
Частота : 48,0 КГц
Битовая глубина : 16 бит
Метод сжатия : С потерями
Размер потока : 392 Мбайт (13%)
Заголовок : Original | DD 5.1 @ 448 kbps
Язык : German
Default : Нет
Forced : Нет

Текст #1
Идентификатор : 4
Формат : UTF-8
Идентификатор кодека : S_TEXT/UTF8
Идентификатор кодека/Информация : UTF-8 Plain Text
Язык : English
Default : Нет
Forced : Нет

Текст #2
Идентификатор : 5
Формат : UTF-8
Идентификатор кодека : S_TEXT/UTF8
Идентификатор кодека/Информация : UTF-8 Plain Text
Язык : German
Default : Нет
Forced : Нет

pb.wtf



Скачать Соблазнитель 2 через торрент http://i60.fastpic.ru/big/2013/1217/99/e0b613101636a4ab37791d6340f41699.png Скачать фильм Соблазнитель 2 через торрент бесплантно в хорошем качестве Описание: Генри — в прошлом известный ловелас. Однако пришло время забыть о прежних привычках и стать прилежным семьянином. Дети, бывший ... 9.4 10 33
Info! Золотая раздача, скачанное не засчитывается.
Торрент: Зарегистрирован [2013-12-17 19:42] · скачан: 1 523 раз
Статус: √ проверено
Размер: 2.91 GB
Как cкачать? Как скачать Соблазнитель 2 через торрент | UTorrent

% Раздел Тема Автор DL S | L
Фильмы (DVD фильмы) [ 6.34 GB ] Соблазнитель 2 / Kokowääh 2 [2013 DVD9] R5 voovaz Скачать
1 | 0
Фильмы [HD 720p, 1080p] (Звук Cam, VO, DVO) [ 8.87 GB ] Соблазнитель 2 / Kokowääh 2 [2013 Германия BDRip 1080p] Любительский HamsterStudio Ворон Скачать
1 | 0

28-11-2019 20:33  

Отключить всю рекламу на сайте

19-12-2013 02:55 Соблазнитель 2 Скачать торрент  

вот это ШЛЯПА,бондарчук отдыхает!вы адекватный человек?тогда вы не сможете это смотреть.после 30 минут просмотра я готов был досмотреть ради концовки,да и с дивана лень было вставать.но когда началось "О_о" ,сска я не выдержал!это мега-дерьмо короче :rofle:pb.wtf



03-01-2014 13:35 Соблазнитель 2 Скачать торрент  

ganjaman1978 писал(а):

вот это ШЛЯПА,бондарчук отдыхает!вы адекватный человек?тогда вы не сможете это смотреть.после 30 минут просмотра я готов был досмотреть ради концовки,да и с дивана лень было вставать.но когда началось "О_о" ,сска я не выдержал!это мега-дерьмо короче :rofle:

Твой мозг как мусорный ведро, весь в гамне и только. Для таких как ты, снимают порнуху!! Там веселись хоть в край.

з.ы. Надеюсь 2 часть будет интересным pb.wtf



24-10-2015 19:01 Соблазнитель 2 Скачать торрент  

ganjaman1978 писал(а):

вот это ШЛЯПА,бондарчук отдыхает!вы адекватный человек?тогда вы не сможете это смотреть.после 30 минут просмотра я готов был досмотреть ради концовки,да и с дивана лень было вставать.но когда началось "О_о" ,сска я не выдержал!это мега-дерьмо короче :rofle:

мдауш, конченый тип...pb.wtf



    Дорогой пользователь! Огромная просьба, поблагодарите релизера, оцените раздачу и оставьте свои комментарий, если Вы скачали Соблазнитель 2 через торрент бесплатно! Внесите свою лепту в развитие PiratBit!
    Комментировать посты могут только пользователи прошедшие не сложную регистрацию
    Показать сообщения:    

    Соблазнитель 2 через торрент
    Скачать бесплатно Соблазнитель 2
    Соблазнитель 2 скачать торрент
    Соблазнитель 2 смотреть онлайн
    Cкачать фильм Соблазнитель 2 бесплатно
    Соблазнитель 2 скачать торрент в хорошем качестве
    Соблазнитель 2 смотреть онлайн бесплатно в хорошем качестве


    Вы не можете начинать темы
    Вы не можете отвечать на сообщения
    Вы не можете редактировать свои сообщения
    Вы не можете удалять свои сообщения
    Вы не можете голосовать в опросах
    Вы не можете прикреплять файлы к сообщениям
    Вы можете скачивать файлы