Ссылка на приватное зеркало нашего сайта всего за 1$. Внимание количество ограничено!!!

2 сезон

iTunes

1 сезон

1

2 сезон

2 сезон

iTunes

1 сезон

RePack

30

Новинка

ВАЖНО

ИГРА 18+

pack

RePack

MK11
pack

Забери бонус

RePack

jed

!!Акция!!

Alien_Rage

RePack

fifa19

RePack

Assassins Creed: Odyssey

RePack

NEED FOR SPEED™ PAYBACK

4 сезон

9 сезон

Бесстыжие 9 сезон

Все сериалы

все сериалы на PB.wtf

RePack

FAR CRY 5
  

Гонка / Drive / Сезон: 1 / Серии: 1-6 (6) (Бен Куинн, Тим Минеар) [2007 г., Боевик, триллер, драма, криминал, приключение, детектив, HDTVRip/WEBRip] MVO [ LostFilm & NovaFilm ] pb.wtf

Гонка через торрент pb.wtf

Размер: 2.05 GB | Добавлен: 6 лет 11 мес. назад | Торрент скачан:100 раз
Скачать  

17-12-2013 20:01 Гонка Скачать торрент  

Гонка
Год выпуска: 2007
Страна: США 20th Century Fox
Жанр: Боевик, триллер, драма, криминал, приключение, детектив
Продолжительность: ~ 00:42:00 х 6
Перевод: Профессиональный многоголосый
Озвучено: Совместный релизLostFilm и NovaFilm

Режиссер: Бен Куинн Тим Минеар
Продюссер: Джон Дж. Грэй, Тим Минеар, Джон Б. Моранвиль
Сценарий: Тим Минеар, Бен Квин, Крэйг Силверштейн

IMDB:7.40 (1851 голосов)


В ролях: Натан Филион, Кристин Леман, Мелани Лински, Райли Смит, Кевин Алехандро, Джей Ди Пардо, Эмма Стоун, Дилан Бэйкер

Описание: Сериал рассказывает о незаконной гонке, проходящей через всю Америку. Среди участников — ландшафтник, у которого пропала жена, молодая мать, уголовник, военный, ученый с семнадцатилетней дочерью и многие другие. У каждого из них есть свои тайны, и каждый стремится победить. Что ждет их на финишной черте, и доберутся ли они до нее? Ответ даст лишь гонка…
Треклист:
1."The Starting Line" ("Стартовая линия")
2."Partners" ("Напарники")
3."Let the Games Begin" ("Игры начинаются")
4."No Turning Back" ("Назад пути нет")
5.The Extra Mile" ("Лишняя миля") WEBRip
6."Rearview" ("Взгляд назад") WEBRip
Качество: HDTVRip/WEBRip
Формат: AVI
Видео кодек: XviD
Аудио кодек: MP3
Видео: Xvid 608x336, 23.98fps, 1 005 Kbps
Аудио: MPEG Audio Layer 3, 48000Hz stereo, 128kbps





General
Complete name : E:Drivedrive.s01e01.hdtvrip.rus.novafilm.tv&lostfilm.tv.avi
Format : AVI
Format/Info : Audio Video Interleave
File size : 351 MiB
Duration : 43mn 0s
Overall bit rate : 1 142 Kbps
Writing application : VirtualDubMod 1.5.10.2 (build 2542/release)
Writing library : VirtualDubMod build 2542/release

Video
ID : 0
Format : MPEG-4 Visual
Format profile : Advanced Simple@L5
Format settings, BVOP : 2
Format settings, QPel : No
Format settings, GMC : No warppoints
Format settings, Matrix : Default (H.263)
Muxing mode : Packed bitstream
Codec ID : XVID
Codec ID/Hint : XviD
Duration : 43mn 0s
Bit rate : 1 005 Kbps
Width : 608 pixels
Height : 336 pixels
Display aspect ratio : 16:9
Frame rate : 23.976 fps
Color space : YUV
Chroma subsampling : 4:2:0
Bit depth : 8 bits
Scan type : Progressive
Compression mode : Lossy
Bits/(Pixel*Frame) : 0.205
Stream size : 309 MiB (88%)
Writing library : XviD 1.1.2 (UTC 2006-11-01)

Audio
ID : 1
Format : MPEG Audio
Format version : Version 1
Format profile : Layer 3
Mode : Joint stereo
Mode extension : MS Stereo
Codec ID : 55
Codec ID/Hint : MP3
Duration : 43mn 0s
Bit rate mode : Constant
Bit rate : 128 Kbps
Channel(s) : 2 channels
Sampling rate : 48.0 KHz
Compression mode : Lossy
Stream size : 39.4 MiB (11%)
Alignment : Aligned on interleaves
Interleave, duration : 42 ms (1.00 video frame)
Interleave, preload duration : 504 ms
Writing library : LAME3.92
Encoding settings : -m j -V 4 -q 2 -lowpass 15.3 -b 128

pb.wtf



Скачать Гонка через торрент http://pic.kartinco.top/images/6/jtxol.jpg Скачать фильм Гонка через торрент бесплантно в хорошем качестве Описание: Сериал рассказывает о незаконной гонке, проходящей через всю Америку. Среди участников — ландшафтник, у которого пропала жена, ... 9.7 10 3
Info! Золотая раздача, скачанное не засчитывается.
Торрент: Зарегистрирован [2013-12-17 20:01] · скачан: 100 раз
Статус: √ проверено
Размер: 2.05 GB
Как cкачать? Как скачать Гонка через торрент | qTorrent



Последний раз редактировалось: lug30 (2013-12-17 21:01), всего редактировалось 1 раз

28-11-2019 20:33  

Отключить всю рекламу на сайте

17-12-2013 20:29 Гонка Скачать торрент  

Норм сериальчик, жаль что не снимают его больше(pb.wtf



18-12-2013 12:49 Гонка Скачать торрент  

Vad_IM писал(а):

Норм сериальчик, жаль что не снимают его больше(

да сериал оболденно начался и есть что то общее с игрой NFS thr RUN. смотрел ещё до выхода игры.
но съёмки прекратили на самом интересном месте по не понятным причинам, (рейтинги были в порядке) Статус: сериал закрыт - не окончен!pb.wtf



    Дорогой пользователь! Огромная просьба, поблагодарите релизера, оцените раздачу и оставьте свои комментарий, если Вы скачали Гонка через торрент бесплатно! Внесите свою лепту в развитие PiratBit!
    Комментировать посты могут только пользователи прошедшие не сложную регистрацию
    Показать сообщения:    

    Гонка через торрент
    Скачать бесплатно Гонка
    Гонка скачать торрент
    Гонка смотреть онлайн
    Cкачать фильм Гонка бесплатно
    Гонка скачать торрент в хорошем качестве
    Гонка смотреть онлайн бесплатно в хорошем качестве


    Вы не можете начинать темы
    Вы не можете отвечать на сообщения
    Вы не можете редактировать свои сообщения
    Вы не можете удалять свои сообщения
    Вы не можете голосовать в опросах
    Вы не можете прикреплять файлы к сообщениям
    Вы можете скачивать файлы