Ссылка на приватное зеркало нашего сайта всего за 1$. Внимание количество ограничено!!!

2 сезон

iTunes

1 сезон

1

iTunes

iTunes

iTunes

1 сезон

RePack

30

ИГРА 18+

pack

ВАЖНО

!!Акция!!

Alien_RageХит недели

RePack

MK11
pack

Забери бонус

RePack

jed

!!Акция!!

Alien_Rage

RePack

fifa19

RePack

Assassins Creed: Odyssey

RePack

NEED FOR SPEED™ PAYBACK

4 сезон

9 сезон

Бесстыжие 9 сезон

Все сериалы

все сериалы на PB.wtf

RePack

FAR CRY 5
  

Масяня (Олег Куваев) [2001 г., Развлекательное видео, мультфильм, DVDRip] pb.wtf

Масяня через торрент pb.wtf

Размер: 2.05 GB | Добавлен: 6 лет 10 мес. назад | Торрент скачан:143 раза
Скачать  

18-12-2013 18:42 Масяня Скачать торрент  

Масяня
Год выпуска: 2001
Страна: Россия
Жанр: Развлекательное видео, мультфильм
Продолжительность: 02:59:00

Режиссер: Олег Куваев

В ролях: Масяня, Хрюндель, Лохматый, кот, Околобаха, Ляська и прочие

Описание: Масяня - это обычная, особо не блещущая талантами и красотой девица, живущая той же обычной жизнью, что и мы все, собравшиеся в этой стране, да и не только в ней... Пьет пиво, болтается по злачным местам, встречается с приятелями и всячески пытается получить как можно больше удовольствия от жизни... Единственное, что ее отличает, - это непобедимый пофигизм и жизнелюбие...

Качество: DVDRip
Формат: AVI
Видео кодек: DivX 5
Аудио кодек: AC3
Видео: DivX 5 720x544, 25.00fps, 1 443 Kbps
Аудио: Dolby AC3, 48000Hz stereo, 192kbps
Релиз от: med7



http://


General
Complete name : E:�7 07 2012Вся Масяня (2001) DVDRip.avi
Format : AVI
Format/Info : Audio Video Interleave
Format profile : OpenDML
File size : 2.05 GiB
Duration : 2h 58mn
Overall bit rate : 1 644 Kbps
Writing application : VirtualDubMod 1.5.4.1 (build 2178/release)
Writing library : VirtualDubMod build 2178/release

Video
ID : 0
Format : MPEG-4 Visual
Format settings, BVOP : 1
Format settings, QPel : No
Format settings, GMC : No warppoints
Format settings, Matrix : Default (H.263)
Muxing mode : Packed bitstream
Codec ID : DX50
Codec ID/Hint : DivX 5
Duration : 2h 58mn
Bit rate : 1 443 Kbps
Width : 720 pixels
Height : 544 pixels
Display aspect ratio : 4:3
Frame rate : 25.000 fps
Color space : YUV
Chroma subsampling : 4:2:0
Bit depth : 8 bits
Scan type : Progressive
Compression mode : Lossy
Bits/(Pixel*Frame) : 0.147
Stream size : 1.80 GiB (88%)
Writing library : DivX 6.8.0 (UTC 2007-12-04)

Audio
ID : 1
Format : AC-3
Format/Info : Audio Coding 3
Mode extension : CM (complete main)
Codec ID : 2000
Duration : 2h 58mn
Bit rate mode : Constant
Bit rate : 192 Kbps
Channel(s) : 2 channels
Channel positions : Front: L R
Sampling rate : 48.0 KHz
Bit depth : 16 bits
Compression mode : Lossy
Stream size : 246 MiB (12%)
Alignment : Split accross interleaves
Interleave, duration : 96 ms (2.40 video frames)
Interleave, preload duration : 96 ms

pb.wtf



Скачать Масяня через торрент http://pic.kartinco.top/images/6/b56ll.jpg Скачать фильм Масяня через торрент бесплантно в хорошем качестве Описание: Масяня - это обычная, особо не блещущая талантами и красотой девица, живущая той же обычной жизнью, что и мы все, собравшиеся в ... 9.9 10 14
Info! Золотая раздача, скачанное не засчитывается.
Торрент: Зарегистрирован [2013-12-18 18:42] · скачан: 143 раз
Статус: √ проверено
Размер: 2.05 GB
Как cкачать? Как скачать Масяня через торрент | qTorrent

% Раздел Тема Автор DL S | L
Мультсериалы [ 4.5 GB ] Масяня / Серии: 1-143 из ? [2001 - 2020 Компьютерная анимация Для взрослых DVDRip WEBRip] killermax2013 Скачать
1 | 0
Мультсериалы [ 3.24 GB ] Масяня / Серии 1-122 [2001-2014 Россия мультфильм DVDRip) GEKADOL Скачать
1 | 0
Разное [ 71 MB ] Сказки от Масяни [Масяня 2009] НеЗнАйКа Скачать
1 | 0
Сцены из фильмов и Сайтрипы с русскими актрисами [ 240 MB ] Любопытной Масяне напихали в прикольную попку / Masha [2009 All sex Oral Anal. DVDRip] Pir@tya2010 Скачать
1 | 0


Последний раз редактировалось: lug30 (2013-12-18 19:01), всего редактировалось 1 раз

28-11-2019 20:33  

Отключить всю рекламу на сайте

18-12-2013 19:00 Масяня Скачать торрент  

прям слеза наворачивается...pb.wtf



18-12-2013 19:14 Масяня Скачать торрент  

А я как вспомню,как на модеме 56к тянул при плохой связи Масяню общим объемом под гигабайт - слезы вообще градом.
Недели две
То ли дело сейчас ! Раздающему pb.wtf



18-12-2013 19:18 Масяня Скачать торрент  

igorutka писал(а):

А я как вспомню,как на модеме 56к тянул при плохой связи Масяню общим объемом под гигабайт - слезы вообще градом.
Недели две
То ли дело сейчас ! Раздающему

уже с пивком,ремонт делаю,на сегодня все pb.wtf



18-12-2013 21:52 Масяня Скачать торрент  

Тоже прям вспомнилось как с еле живым инетом качали. Класс! Надо обязательно затариться пивком и посмотреть.pb.wtf



09-11-2014 06:26 Масяня Скачать торрент  

Люди добрые, дайте скорости. Второй день скачать не могу.pb.wtf



    Дорогой пользователь! Огромная просьба, поблагодарите релизера, оцените раздачу и оставьте свои комментарий, если Вы скачали Масяня через торрент бесплатно! Внесите свою лепту в развитие PiratBit!
    Комментировать посты могут только пользователи прошедшие не сложную регистрацию
    Показать сообщения:    

    Масяня через торрент
    Скачать бесплатно Масяня
    Масяня скачать торрент
    Масяня смотреть онлайн
    Cкачать фильм Масяня бесплатно
    Масяня скачать торрент в хорошем качестве
    Масяня смотреть онлайн бесплатно в хорошем качестве


    Вы не можете начинать темы
    Вы не можете отвечать на сообщения
    Вы не можете редактировать свои сообщения
    Вы не можете удалять свои сообщения
    Вы не можете голосовать в опросах
    Вы не можете прикреплять файлы к сообщениям
    Вы можете скачивать файлы