новый адрес
Мега распродажа FORZA HORIZON 4 ULTIMATE+ВСЕ DLC+ОНЛАЙН всего за 499р. 349 руб. (супер цена). Внимание количество ограничено!!!

iTunes

1+1

iTunes

мы

iTunes

1

iTunes

Чернобыль

iTunes

Ральф против интернета

Лицензия

ПШазам

Лицензия

Игра престолов

Лицензия

30
pack

ВАЖНО

!!Акция!!

Alien_RageХит недели

RePack

Resident Evil 21

ИГРА 18+

pack

RePack

Metro:Exodus

!!Акция!!

Alien_Rage

RePack

fifa19

RePack

Assassins Creed: Odyssey

RePack

NEED FOR SPEED™ PAYBACK

3 сезон

9 сезон

Бесстыжие 9 сезон

Все сериалы

все сериалы на PB.wtf

RePack

FAR CRY 5
Ребята, катастрофически не хватает 1900р. для оплаты серверов за Октябрь (всвязи с блокировками трафик упал в 3 раза), 1-2р., выручайте.
  

Сказка странствий / [Полная реставрация] (Александр Митта) [1982, фэнтези, приключения, DVDRip] pb.wtf

Сказка странствий через торрент pb.wtf

Размер: 1.44 GB | Добавлен: 5 лет 10 мес. назад | Торрент скачан:219 раз
Скачать  

19-12-2013 17:37 Сказка странствий Скачать торрент  

Сказка странствий
Страна: СССР
Жанр: фэнтези, приключения,
Продолжительность: 01:39:33
Субтитры: Нет
Режиссер: Александр Митта
Сценарий: Юлий Дунский, Валерий Фрид, Александр Митта
Премьера в мире: 5 сентября 1983
Возраст : 0+ для любой зрительской аудитории


В ролях: Андрей Миронов, Татьяна Аксюта (озвучание - Марина Неёлова), Лев Дуров, Ксюша Пирятинская, Балтыбай Сейтмамутов, Валерий Сторожик, Кармен Галин (озвучание - Екатерина Васильева), Владимир Басов, Вениамин Смехов, Эвжен Егоров, Жан Лорин Флореску (озвучание - Виктор Сергачёв), Владимир Басов, Мари Росулкова, Зденек Ржегорж, Вацлав Котва, Петр Ханус, Владимир Долинский, Владимир Кремена, Александр Пятков, Валерий Симунин, Олег Штода, Карел Белоградски, Роджин Константин, Октавиан Котеску (озвучание - Всеволод Ларионов), Овидий Юлий Молдован, Александр Титов, Карел Габл, Сергей Самойлов, Дмитрий Титов

Описание: Два злодея похищают мальчика-сироту, обладающего волшебным даром находить золото. Его сестра долгие годы ищет его, испытывая лишения, и наконец встречается с братом. Но оказывается, что найти — еще не значит спасти…

Доп. информация: Полная реставрация изображения и звука от киновидеообъединения "Крупный План"

Качество: DVDRip
Формат: AVI
Видео кодек: XviD
Аудио кодек: AC3
Видео: 704x528 (1.33:1), XviD 1.2.1, 1617 kbps avg,25 fps, 0.17 bit/pixel
Аудио: AC3 Dolby Digital, 3/2 (L,C,R,l,r) + LFE ch, 448.00 kbps avg ,48 kHz
Рип от: Basilevs
Благодарность: Demonessa за любезно предоставленную 3D обложку фильма
скриншот   скриншот   скриншот   скриншот   скриншот   скриншот   скриншот   скриншот   скриншот  скриншот   скриншот   скриншот   скриншот  





Полное имя : H:tempСказка странствийSkazka stranstviy.avi
Формат : AVI
Формат/Информация : Audio Video Interleave
Размер файла : 1,44 Гбайт
Продолжительность : 1 ч. 39 м.
Общий поток : 2074 Кбит/сек
Программа кодирования : VirtualDubMod 1.5.10.3 | www.virtualdub-fr.org || (build 2550/release)
Библиотека кодирования : VirtualDubMod build 2550/release

Видео
Идентификатор : 0
Формат : MPEG-4 Visual
Профиль формата : Advanced Simple@L5
Параметр BVOP формата : 1
Параметр QPel формата : Нет
Параметр GMC формата : Без точки перехода
Параметр матрицы формата : Выборочная
Режим смешивания : Сжатый битовый поток
Идентификатор кодека : XVID
Идентификатор кодека/Подсказка : XviD
Продолжительность : 1 ч. 39 м.
Битрейт : 1617 Кбит/сек
Ширина : 704 пикселя
Высота : 528 пикселей
Соотношение сторон : 4:3
Частота кадров : 25,000 кадров/сек
Цветовое пространство : YUV
Субдискретизация насыщенности : 4:2:0
Битовая глубина : 8 бит
Тип развёртки : Прогрессивная
Метод сжатия : С потерями
Бит/(Пиксели*Кадры) : 0.174
Размер потока : 1,12 Гбайт (78%)
Библиотека кодирования : XviD 1.2.1 (UTC 2008-12-04)

Аудио
Идентификатор : 1
Формат : AC-3
Формат/Информация : Audio Coding 3
Расширение режима : CM (complete main)
Параметр Endianness формата : Big
Идентификатор кодека : 2000
Продолжительность : 1 ч. 39 м.
Вид битрейта : Постоянный
Битрейт : 448 Кбит/сек
Каналы : 6 каналов
Расположение каналов : Front: L C R, Side: L R, LFE
Частота : 48,0 КГц
Битовая глубина : 16 бит
Метод сжатия : С потерями
Задержка видео : 244 мс.
Размер потока : 319 Мбайт (22%)
Выравнивание : Разделение по промежуткам
Продолжительность промежутка : 40 мс. (1,00 видеокадр)
Время предзагрузки промежутка : 500 мс.

pb.wtf



Скачать Сказка странствий через торрент http://pic.kartinco.top/images/6/zglbd.jpg Скачать фильм Сказка странствий через торрент бесплантно в хорошем качестве Описание: Два злодея похищают мальчика-сироту, обладающего волшебным даром находить золото. Его сестра долгие годы ищет его, испытывая ... 9.9 10 18
Info! Золотая раздача, скачанное не засчитывается.
Торрент: Зарегистрирован [2013-12-19 17:37] · скачан: 219 раз
Статус: √ проверено
Размер: 1.44 GB
Как cкачать? Как скачать Сказка странствий через торрент | qTorrent



Последний раз редактировалось: igorutka (2013-12-20 13:36), всего редактировалось 1 раз


>> Регистрируемся здесь <<






Отзывы и комментарии о схеме читаем и пишем здесь: ---> Отзывы и комментарии о схеме

Новые благодарочки в телеграм довольных пользователей:
скриншот   скриншот   скриншот   скриншот   скриншот

19-12-2013 18:24 Сказка странствий Скачать торрент  

Классика, очень приятно, Спасибо.pb.wtf



19-12-2013 18:42 Сказка странствий Скачать торрент  

Bobr751

А мне как приятно ! Это вообще первый коммент в моих раздачах,кроме
замечаний модераторов,что надо исправить. Здоровья Вам, и с наступающим ! pb.wtf



19-12-2013 19:19 Сказка странствий Скачать торрент  

Отличный фильм. Спасибо большоеpb.wtf



19-12-2013 19:32 Сказка странствий Скачать торрент  

Akhsanit
Благодарю Вас ! Буду рад и в дальнейшем выкладывать то из советской и мировой киноклассики,чего по случайности нет на нашем трекере .
.pb.wtf



20-12-2013 06:35 Сказка странствий Скачать торрент  

Из моего детства. Зацепило тогда. Спасибо, фильм потрясающий своей глубиной. Игра Миронова Андрея, музыка Шнитке и вселенская грусть. Не снимут такого уже никогда. Некому. Жаль.pb.wtf



20-12-2013 08:38 Сказка странствий Скачать торрент  

jantik78 писал(а):

Не снимут такого уже никогда. Некому. Жаль.

Боюсь,Вы правы... pb.wtf



20-12-2013 08:44 Сказка странствий Скачать торрент  

Спасибо! Давно смотрел, помню про этот фильм, что он тяжелый. И песня там в конце очень хорошая!pb.wtf



07-01-2014 19:55 Сказка странствий Скачать торрент  

Огромное спасибо за работу! Как всегда отличные релизы от тебя!))pb.wtf



07-01-2014 21:15 Сказка странствий Скачать торрент  

marsmoon
Чертовски приятно прочитать такое , но это все же аванс.
Я только в начале пути, подождем с годик, повторишь ли ты эти слова релизов через 100-200 ?
pb.wtf



28-06-2014 20:47 Сказка странствий Скачать торрент  

СПАСИБО ОГРОМНОЕ автору. Я столько лет ищу этот фильм!!!!pb.wtf



29-06-2014 07:52 Сказка странствий Скачать торрент  

8955, Спасибо Вам! Этот фильм стоит того, чтоб его искать, найти и заново посмотреть.pb.wtf



    Дорогой пользователь! Огромная просьба, поблагодарите релизера, оцените раздачу и оставьте свои комментарий, если Вы скачали Сказка странствий через торрент бесплатно! Внесите свою лепту в развитие PiratBit!
    Комментировать посты могут только пользователи прошедшие не сложную регистрацию
    Показать сообщения:    

    Сказка странствий через торрент
    Скачать бесплатно Сказка странствий
    Сказка странствий скачать торрент
    Сказка странствий смотреть онлайн
    Cкачать фильм Сказка странствий бесплатно
    Сказка странствий скачать торрент в хорошем качестве
    Сказка странствий смотреть онлайн бесплатно в хорошем качестве


    Вы не можете начинать темы
    Вы не можете отвечать на сообщения
    Вы не можете редактировать свои сообщения
    Вы не можете удалять свои сообщения
    Вы не можете голосовать в опросах
    Вы не можете прикреплять файлы к сообщениям
    Вы можете скачивать файлы