новый адрес
Ссылка на приватное зеркало всего за 1$. Внимание количество ограничено!!!

iTunes

1+1

iTunes

мы

WEB-DL

1

iTunes

Чернобыль

iTunes

Ральф против интернета

Лицензия

ПШазам

Лицензия

Оно 2

Лицензия

30
pack

Вам бонус

ВАЖНО

!!Акция!!

Alien_RageХит недели

RePack

Resident Evil 21

ИГРА 18+

pack

RePack

jed

!!Акция!!

Alien_Rage

RePack

fifa19

RePack

Assassins Creed: Odyssey

RePack

NEED FOR SPEED™ PAYBACK

3 сезон

9 сезон

Бесстыжие 9 сезон

Все сериалы

все сериалы на PB.wtf

RePack

FAR CRY 5
Ребята, катастрофически не хватает 1900р. для оплаты серверов за Октябрь (всвязи с блокировками трафик упал в 3 раза), 1-2р., выручайте.
  

Первые на Луне (Алексей Федорченко) [2005, Россия, фантастика, фэнтези, DVDRip-AVC] pb.wtf

Первые на Луне через торрент pb.wtf

Размер: 743 MB | Добавлен: 5 лет 11 мес. назад | Торрент скачан:228 раз

Так кто был первым на Луне?

 США (8)

 СССР (10)

Всего проголосовало : 18

Скачать  

20-12-2013 14:48 Первые на Луне Скачать торрент  

Первые на Луне
«Мы первые. СССР»

Год выпуска: 2005
Страна: Россия
Жанр: фантастика, фэнтези

Продолжительность: 01:11:41
Перевод:
|Не требуется|
Режиссер: Алексей Федорченко
В ролях: Борис Власов (Иван Харламов), Виктория Ильинская (Надежда Светлая), Анатолий Отраднов (Ханиф Фаттахов в старости), Алексей Славнин (Ханиф Фаттахов в молодости), Виктор Котов (Михаил Рощин), Игорь Санников (циркач), Алексей Анисимов (оператор), Леонид Чистов (оперативник ФСБ), Сергей Ярмолюк («Соло со стаканом»), Антон Ескин (пациент), Сергей Парамонов (разведчик Кирьянов), Юрий Ершов
Описание:
Можно долго спорить, были американцы на Луне или нет, но есть факты, которые убедительно доказывают: советским учёным удалось запустить первый летательный аппарат в космос еще в марте 1938 года! Информация более чем убедительна — и на этот раз советские космонавты опередили американцев…

Наши дни. Съёмочная группа журналистов расследует строго засекреченное дело. Им удаётся раскопать настоящую сенсацию: оказывается, ещё до Великой Отечественной войны в СССР была создана первая ракета, и готовился полёт космолетчиков на Луну.
Рейтинг

imdb.com: 6.90 (372)
Награды:
  • Премия за лучший документальный фильм в конкурсной программе «Горизонты» (Venice Horizons Documentary Award) на Венецианском кинофестивале, 2005
  • Приз «За лучший дебют» на фестивале «Кинотавр», 2005
  • Приз гильдии киноведов и кинокритиков на фестивале «Кинотавр», 2005
  • Приз «Золотая коляска», Загреб, 2005
  • 3 премии «Белый слон» — «лучший фильм-дебют», «лучший сценарий», «лучшая работа художника».
    Качество: DVDRip-AVC
    Формат: MKV
    Видео кодек: AVC
    Аудио кодек: AC3
    Видео: AVC, 780x572@714x572 (4:3), 1255 kbps, 25 fps, 0,123 bpp
    Аудио: русский / AC3 / 2.0 / 48 kHz / 192 kbps / 16 bit ||

    Оформление: Messa-fan
    General
    Unique ID : 188962572576022905574065814578230861995 (0x8E28DE20E22693619D057184C85620AB)
    Complete name : Pervie_na_lune_h264_ac3.mkv
    Format : Matroska
    Format version : Version 2
    File size : 743 MiB
    Duration : 1h 11mn
    Overall bit rate : 1 449 Kbps
    Encoded date : UTC 2011-12-07 03:18:22
    Writing application : mkvmerge v4.9.1 ('Ich will') сборка от Jul 11 2011 23:53:15
    Writing library : libebml v1.2.1 + libmatroska v1.1.1

    Video
    ID : 1
    Format : AVC
    Format/Info : Advanced Video Codec
    Format profile : High@L4.1
    Format settings, CABAC : Yes
    Format settings, ReFrames : 8 frames
    Codec ID : V_MPEG4/ISO/AVC
    Duration : 1h 11mn
    Bit rate : 1 255 Kbps
    Width : 714 pixels
    Height : 572 pixels
    Display aspect ratio : 4:3
    Original display aspect ratio : 5:4
    Frame rate : 25.000 fps
    Color space : YUV
    Chroma subsampling : 4:2:0
    Bit depth : 8 bits
    Scan type : Progressive
    Bits/(Pixel*Frame) : 0.123
    Stream size : 629 MiB (85%)
    Writing library : x264 core 116 r2074 2641b9e
    Encoding settings : cabac=1 / ref=8 / deblock=1:0:0 / analyse=0x3:0x133 / me=umh / subme=9 / psy=1 / psy_rd=1.00:0.00 / mixed_ref=1 / me_range=16 / chroma_me=1 / trellis=2 / 8x8dct=1 / cqm=0 / deadzone=21,11 / fast_pskip=1 / chroma_qp_offset=-2 / threads=6 / sliced_threads=0 / nr=0 / decimate=1 / interlaced=0 / bluray_compat=0 / constrained_intra=0 / bframes=3 / b_pyramid=2 / b_adapt=2 / b_bias=0 / direct=3 / weightb=1 / open_gop=0 / weightp=2 / keyint=250 / keyint_min=25 / scenecut=40 / intra_refresh=0 / rc_lookahead=60 / rc=2pass / mbtree=1 / bitrate=1255 / ratetol=1.0 / qcomp=0.60 / qpmin=0 / qpmax=69 / qpstep=4 / cplxblur=20.0 / qblur=0.5 / ip_ratio=1.40 / aq=1:1.00
    Default : Yes
    Forced : No

    Audio
    ID : 2
    Format : AC-3
    Format/Info : Audio Coding 3
    Mode extension : CM (complete main)
    Codec ID : A_AC3
    Duration : 1h 11mn
    Bit rate mode : Constant
    Bit rate : 192 Kbps
    Channel(s) : 2 channels
    Channel positions : Front: L R
    Sampling rate : 48.0 KHz
    Bit depth : 16 bits
    Compression mode : Lossy
    Stream size : 98.4 MiB (13%)
    Language : Russian
    Default : Yes
    Forced : No
    pb.wtf



  • Скачать Первые на Луне через торрент http://i59.fastpic.ru/big/2013/1220/69/a5f073f1320c5ff4eec15c17ab8f0069.jpg Скачать фильм Первые на Луне через торрент бесплантно в хорошем качестве Описание: Можно долго спорить, были американцы на Луне или нет, но есть факты, которые убедительно доказывают: советским учёным удалось ... 8.3 10 10
    Info! Золотая раздача, скачанное не засчитывается.
    Торрент: Зарегистрирован [2013-12-20 14:48] · скачан: 228 раз
    Статус: √ проверено
    Размер: 743 MB
    Как cкачать? Как скачать Первые на Луне через торрент | qTorrent



    Последний раз редактировалось: Messa-fan (2013-12-20 15:33), всего редактировалось 1 раз

    28-11-2019 20:33  

    Отключить всю рекламу на сайте

    20-12-2013 15:24 Первые на Луне Скачать торрент  

    Так же рекомендую к просмотру Пионер Один / Pioneer One / Сезон: 1 / Серии: 0-6 из 6 pb.wtf



    22-12-2013 21:22 Первые на Луне Скачать торрент  

    Что это было? Зачем снимать такое?! Что за рейтинг??? Откуда награды, кто их присуждал??? За что???pb.wtf





    Последний раз редактировалось: КАБ (2014-12-08 13:42), всего редактировалось 1 раз

    02-01-2014 22:05 Первые на Луне Скачать торрент  

    Полный шлак и потеря времениpb.wtf



    16-03-2017 14:23 Первые на Луне Скачать торрент  

    Абсолютно замечательный фильм. Потрясающие псевдодокументальные сцены.Тонкий юмор,прекрасная режиссура,убедительная игра актеров. Интересно будет не всем, но если не интересно,то можно просто не смотреть,а ругать фильм не надо. Хорошее качество рипа.pb.wtf



      Дорогой пользователь! Огромная просьба, поблагодарите релизера, оцените раздачу и оставьте свои комментарий, если Вы скачали Первые на Луне через торрент бесплатно! Внесите свою лепту в развитие PiratBit!
      Комментировать посты могут только пользователи прошедшие не сложную регистрацию
      Показать сообщения:    

      Первые на Луне через торрент
      Скачать бесплатно Первые на Луне
      Первые на Луне скачать торрент
      Первые на Луне смотреть онлайн
      Cкачать фильм Первые на Луне бесплатно
      Первые на Луне скачать торрент в хорошем качестве
      Первые на Луне смотреть онлайн бесплатно в хорошем качестве


      Вы не можете начинать темы
      Вы не можете отвечать на сообщения
      Вы не можете редактировать свои сообщения
      Вы не можете удалять свои сообщения
      Вы не можете голосовать в опросах
      Вы не можете прикреплять файлы к сообщениям
      Вы можете скачивать файлы