2 сезон

iTunes

MVO

1

2 сезон

iTunes

iTunes

1 сезон

RePack

30

Новинка

ВАЖНО

ИГРА 18+

pack

RePack

MK11
pack

Легкие деньги

RePack

jed

RePack

fifa19

RePack

RDR2

RePack

NEED FOR SPEED™ PAYBACK

4 сезон

9 сезон

Бесстыжие 9 сезон

Все сериалы

все сериалы на PB.wtf

RePack

FAR CRY 5

Anonymous, добрый вечер, мы не успеваем собрать деньги на оплату серверов за декабрь и январь, помогите нам пожалуйста в это трудное время. В качестве благодарности мы отключим Вам всю рекламу на сайте (укажите свой ник в строку Ваше имя)!

×
  
Magnet ссылка

Сборник видеоклипов Scorpions / Scorpions - The Videos [2010 г., Rock, DVDRip] pb.wtf

Сборник видеоклипов Scorpions через торрент pb.wtf

Размер: 1.37 GB | Добавлен: 7 лет назад | Торрент скачан:227 раз
Скачать  

20-12-2013 19:01 Сборник видеоклипов Scorpions Скачать торрент  

Сборник видеоклипов Scorpions
Год выпуска: 2010
Страна: США Universal
Жанр: Rock
Продолжительность: 01:41:42
Перевод: Оригинал

Исполнитель: Scorpions

Описание: Сборник видеоклипов одной из классической хард-рок групп The Scorpions. В данное видео вошли хиты 80-х и 90-х представлены как видеоклипами, так и живыми выступлениями.The Scorpions» («Скорпионы») — немецкая рок-группа, образована в 1965 году в Ганновере. Стиль группы можно определить как классический хард-рок, для «Scorpions» характерны лирические рок-баллады. Является одной из самых популярных групп на мировой рок-сцене, продавшей более 150 миллионов копий альбомов... 18 марта 2010 года состоялся релиз последнего альбома группы Scorpions «Sting In The Tail». Это последний альбом группы, Scorpions завершают свою карьеру прощальным мировым турне.
01. Humanity
02. You And I
03. Alien Nation
04. Believe In Love
05. Big City Nights
06. Don't Believe Her
07. Here In My Heart (Feat Berliner Philharmoniker)
08. Holiday
09. Hurricane 2000 (Feat Berliner Philharmoniker)
10. I Can't Explain
11. I'm Leaving You
12. Moment Of Glorey (Feat Berliner Philharmoniker)
13. No One Like You (Live Version)
14. Passion Rules The Game
15. Rhythm Of Love
16. Rock You Like A Hurricane (Russianversion)
17. Send Me An Angel
18. Still Loving You
19. No One Like You
20. Tease Me Please Me
21. Under The Same Sun
22. Walking On The Edge (Russian Version)
23. When Love Kills Love (Acoustic Version)
24. Wind Of Change
25. A Moment In A Million Years
Качество:DVDRip
Формат: AVI
Видео кодек: XviD
Аудио кодек: AC3
Видео: Xvid 704x400, 29.97fps, 1 346 Kbps
Аудио: Dolby AC3, 48000Hz 6ch, 448kbps
Релиз от: skula





General
Complete name : E:Scorpions_Video.Collection.avi
Format : AVI
Format/Info : Audio Video Interleave
File size : 1.37 GiB
Duration : 1h 48mn
Overall bit rate : 1 802 Kbps
Writing application : VirtualDubMod 1.5.4.1 (build 2178/release)
Writing library : VirtualDubMod build 2178/release

Video
ID : 0
Format : MPEG-4 Visual
Format profile : Advanced Simple@L5
Format settings, BVOP : 1
Format settings, QPel : No
Format settings, GMC : No warppoints
Format settings, Matrix : Custom
Codec ID : XVID
Codec ID/Hint : XviD
Duration : 1h 48mn
Bit rate : 1 346 Kbps
Width : 704 pixels
Height : 400 pixels
Display aspect ratio : 16:9
Frame rate : 29.970 fps
Color space : YUV
Chroma subsampling : 4:2:0
Bit depth : 8 bits
Scan type : Progressive
Compression mode : Lossy
Bits/(Pixel*Frame) : 0.159
Stream size : 1.02 GiB (75%)
Writing library : XviD 1.2.1 (UTC 2008-12-04)

Audio
ID : 1
Format : AC-3
Format/Info : Audio Coding 3
Mode extension : CM (complete main)
Codec ID : 2000
Duration : 1h 48mn
Bit rate mode : Constant
Bit rate : 448 Kbps
Channel(s) : 6 channels
Channel positions : Front: L C R, Side: L R, LFE
Sampling rate : 48.0 KHz
Bit depth : 16 bits
Compression mode : Lossy
Stream size : 348 MiB (25%)
Alignment : Split accross interleaves
Interleave, duration : 96 ms (2.88 video frames)
Interleave, preload duration : 96 ms
Language : English

pb.wtf



Скачать Сборник видеоклипов Scorpions через торрент http://pic.kartinco.top/images/6/m7pmb.jpg Скачать фильм Сборник видеоклипов Scorpions через торрент бесплантно в хорошем качестве Описание: Сборник видеоклипов одной из классической хард-рок групп The Scorpions. В данное видео вошли хиты 80-х и 90-х представлены как ... 10 10 10
Info! Золотая раздача, скачанное не засчитывается.
Торрент: Зарегистрирован [2013-12-20 19:01] · скачан: 227 раз
Статус: √ проверено
Размер: 1.37 GB
Как cкачать? Как скачать Сборник видеоклипов Scorpions через торрент | UTorrent

28-11-2019 20:33  

Отключить всю рекламу на сайте

21-12-2013 07:06 Сборник видеоклипов Scorpions Скачать торрент  

что-то со звуком проблемы (по ходу клипа то громче то тише) кто качал-отзовитесьpb.wtf



21-12-2013 17:03 Сборник видеоклипов Scorpions Скачать торрент  

Ща узнаю чё да как - Лучшая группа детства sarcastic

СПАСИБО Всё СУПЕР - :rofle: pb.wtf



    Дорогой пользователь! Огромная просьба, поблагодарите релизера, оцените раздачу и оставьте свои комментарий, если Вы скачали Сборник видеоклипов Scorpions через торрент бесплатно! Внесите свою лепту в развитие PiratBit!
    Комментировать посты могут только пользователи прошедшие не сложную регистрацию
    Показать сообщения:    

    Сборник видеоклипов Scorpions через торрент
    Скачать бесплатно Сборник видеоклипов Scorpions
    Сборник видеоклипов Scorpions скачать торрент
    Сборник видеоклипов Scorpions смотреть онлайн
    Cкачать фильм Сборник видеоклипов Scorpions бесплатно
    Сборник видеоклипов Scorpions скачать торрент в хорошем качестве
    Сборник видеоклипов Scorpions смотреть онлайн бесплатно в хорошем качестве


    Вы не можете начинать темы
    Вы не можете отвечать на сообщения
    Вы не можете редактировать свои сообщения
    Вы не можете удалять свои сообщения
    Вы не можете голосовать в опросах
    Вы не можете прикреплять файлы к сообщениям
    Вы можете скачивать файлы