2 сезон

iTunes

MVO

1

2 сезон

iTunes

iTunes

1 сезон

RePack

30

Новинка

ВАЖНО

ИГРА 18+

pack

RePack

MK11
pack

Легкие деньги

RePack

jed

RePack

fifa19

RePack

RDR2

RePack

NEED FOR SPEED™ PAYBACK

4 сезон

9 сезон

Бесстыжие 9 сезон

Все сериалы

все сериалы на PB.wtf

RePack

FAR CRY 5

Anonymous, доброй ночи, мы не успеваем собрать деньги на оплату серверов за декабрь и январь, помогите нам пожалуйста в это трудное время. В качестве благодарности мы отключим Вам всю рекламу на сайте (укажите свой ник в строку Ваше имя)!

×
  
Magnet ссылка

Пушки, телки и азарт / Guns, Girls and Gambling (Майкл Уинник / Michael Winnick) [2011 г., Триллер, криминал, комедия, BDRip-AVC, Дубляж, Лицензия] pb.wtf

Пушки, телки и азарт через торрент pb.wtf

Размер: 2.14 GB | Добавлен: 7 лет 1 мес. назад | Торрент скачан:2931 раз
Скачать  

21-12-2013 06:54 Пушки, телки и азарт Скачать торрент  

Пушки телки и азарт / Guns Girls and Gambling
Год выпуска: 2011
Страна: США / Freefall Films, Hollywood Sky Entertainment, Incognito Pictures, Releaseme Productions
Жанр: Триллер, криминал, комедия,
Продолжительность: 01:29:16
Перевод: Дубляж [R5]
Субтитры: Английские

Режиссер: Майкл Уинник / Michael Winnick



В ролях: Кристиан Слэйтер, Меган Парк, Хелена Мэттссон, Пауэрс Бут, Гордон Тутусис, Гари Олдман, Мэттью Уиллиг, Дейн Кук, Сэм Трэммелл, Джефф Фэйи,

Описание: Джону Смиту не очень-то везло в последнее время, но он верил в народную мудрость, что жизнь — это тельняшка, и за черной полосой обязательно последует белая. Однако на этот раз мудрость не сработала. Джон Смит оказался в плохое время в плохом месте. Из казино, где он пытался поправить свое финансовое положение, во время игры в покер украли бесценный индейский артефакт. Как гласит предание, эта священная маска легендарного воина племени сиу способна подарить своему обладателю удачу и бессмертие. Охотников за счастьем подсобралось немало, и все они стопроцентно уверены, что вор — Джон Смит. Разношерстная компания — двойники Элвиса Пресли, индейцы, ковбои, блондинка-киллерша, коррумпированные полицейские, проститутка и даже злобный карлик — бросается за ним в погоню…

Качество: BDRip-AVC
Формат: MKV
Видео кодек: H.264
Аудио кодек: AC3
Видео: 1036x584 (16:9), 23,976 fps, 2608 Кbps, 0.180 bit/pixel
Аудио#1: 48 kHz, AC3 Dolby Digital, 3/2 (L,C,R,l,r) + LFE ch, 384.00 kbps | RUS
Аудио#2: 48 kHz, AC3 Dolby Digital, 3/2 (L,C,R,l,r) + LFE ch, 448.00 kbps | ENG

Релиз группы:
Автор рипа: potroks





Общее
Уникальный идентификатор : 194479404098954703734745773975583606975 (0x924F5EEC3AC1272E9991AB50D57C48BF)
Полное имя : Pushki.Tjolki.i.Azart.2011.DUAL.BDRip.x264.-HELLYWOOD.mkv
Формат : Matroska
Версия формата : Version 4 / Version 2
Размер файла : 2,14 Гбайт
Продолжительность : 1 ч. 29 м.
Общий поток : 3433 Кбит/сек
Название фильма : HELLYWOOD - rip by potroks
Дата кодирования : UTC 2013-12-21 06:26:41
Программа кодирования : mkvmerge v5.9.0 ('On The Loose') built on Dec 15 2012 16:39:58
Библиотека кодирования : libebml v1.3.0 + libmatroska v1.4.0

Видео
Идентификатор : 1
Формат : AVC
Формат/Информация : Advanced Video Codec
Профиль формата : High@L4.1
Параметр CABAC формата : Да
Параметр ReFrames формата : 12 кадров
Идентификатор кодека : V_MPEG4/ISO/AVC
Продолжительность : 1 ч. 29 м.
Битрейт : 2608 Кбит/сек
Ширина : 1036 пикселей
Высота : 584 пикселя
Соотношение сторон : 16:9
Режим частоты кадров : Постоянный
Частота кадров : 23,976 кадра/сек
Цветовое пространство : YUV
Субдискретизация насыщенности : 4:2:0
Битовая глубина : 8 бит
Тип развёртки : Прогрессивная
Бит/(Пиксели*Кадры) : 0.180
Размер потока : 1,58 Гбайт (74%)
Заголовок : Guns, Girls and Gambling
Библиотека кодирования : x264 core 130 r2273 b3065e6
Настройки программы : cabac=1 / ref=12 / deblock=1:-2:-2 / analyse=0x3:0x133 / me=umh / subme=11 / psy=1 / psy_rd=1.07:0.02 / mixed_ref=1 / me_range=32 / chroma_me=1 / trellis=2 / 8x8dct=1 / cqm=0 / deadzone=21,11 / fast_pskip=0 / chroma_qp_offset=-3 / threads=9 / lookahead_threads=8 / sliced_threads=0 / nr=0 / decimate=0 / interlaced=0 / bluray_compat=0 / constrained_intra=0 / bframes=13 / b_pyramid=2 / b_adapt=2 / b_bias=0 / direct=3 / weightb=1 / open_gop=0 / weightp=2 / keyint=250 / keyint_min=23 / scenecut=40 / intra_refresh=0 / rc_lookahead=60 / rc=2pass / mbtree=0 / bitrate=2608 / ratetol=1.0 / qcomp=0.70 / qpmin=0 / qpmax=69 / qpstep=4 / cplxblur=20.0 / qblur=0.5 / vbv_maxrate=20000 / vbv_bufsize=25000 / nal_hrd=none / ip_ratio=1.35 / pb_ratio=1.25 / aq=1:0.70
Язык : English
Default : Да
Forced : Нет

Аудио #1
Идентификатор : 2
Формат : AC-3
Формат/Информация : Audio Coding 3
Расширение режима : CM (complete main)
Параметр Endianness формата : Big
Идентификатор кодека : A_AC3
Продолжительность : 1 ч. 29 м.
Вид битрейта : Постоянный
Битрейт : 384 Кбит/сек
Каналы : 6 каналов
Расположение каналов : Front: L C R, Side: L R, LFE
Частота : 48,0 КГц
Битовая глубина : 16 бит
Метод сжатия : С потерями
Размер потока : 246 Мбайт (11%)
Заголовок : Dub | DD 5.1 @ 384 kbps - R5
Язык : Russian
Default : Да
Forced : Да

Аудио #2
Идентификатор : 3
Формат : AC-3
Формат/Информация : Audio Coding 3
Расширение режима : CM (complete main)
Параметр Endianness формата : Big
Идентификатор кодека : A_AC3
Продолжительность : 1 ч. 29 м.
Вид битрейта : Постоянный
Битрейт : 448 Кбит/сек
Каналы : 6 каналов
Расположение каналов : Front: L C R, Side: L R, LFE
Частота : 48,0 КГц
Битовая глубина : 16 бит
Метод сжатия : С потерями
Размер потока : 287 Мбайт (13%)
Заголовок : Original | DD 5.1 @ 448 kbps
Язык : English
Default : Нет
Forced : Нет

Текст
Идентификатор : 4
Формат : UTF-8
Идентификатор кодека : S_TEXT/UTF8
Идентификатор кодека/Информация : UTF-8 Plain Text
Язык : English
Default : Нет
Forced : Нет

Меню
00:00:00.000 : :Chapter 01
00:07:19.480 : :Chapter 02
00:14:54.184 : :Chapter 03
00:22:17.002 : :Chapter 04
00:30:19.400 : :Chapter 05
00:39:04.800 : :Chapter 06
00:45:43.365 : :Chapter 07
00:51:38.970 : :Chapter 08
00:59:37.824 : :Chapter 09
01:07:10.151 : :Chapter 10
01:14:53.572 : :Chapter 11
01:19:50.410 : :Chapter 12
01:29:15.391 : :Chapter 13

pb.wtf



Скачать Пушки, телки и азарт через торрент http://s52.radikal.ru/i138/1312/6c/ed37abe83781.jpg Скачать фильм Пушки, телки и азарт через торрент бесплантно в хорошем качестве Описание: Джону Смиту не очень-то везло в последнее время, но он верил в народную мудрость, что жизнь — это тельняшка, и за черной полосой ... 9.8 10 54
Info! Золотая раздача, скачанное не засчитывается.
Торрент: Зарегистрирован [2013-12-21 06:54] · скачан: 2 931 раз
Статус: √ проверено
Размер: 2.14 GB
Как cкачать? Как скачать Пушки, телки и азарт через торрент | UTorrent

% Раздел Тема Автор DL S | L
Фильмы 2011 [ 2.05 GB ] Пушки телки и азарт / Guns Girls and Gambling [2011 BDRip + [VO]] 1mpulse2k20 Скачать
1 | 0
Фильмы 2011 [ 1.36 GB ] Пушки телки и азарт / Guns Girls and Gambling [2011 HDRip [ Чистый звук ] coc900 Скачать
1 | 0

28-11-2019 20:33  

Отключить всю рекламу на сайте

22-12-2013 18:41 Пушки, телки и азарт Скачать торрент  

почему фильм 11 года тут? или в шапке ошибка? исправь pb.wtf



22-12-2013 19:51 Пушки, телки и азарт Скачать торрент  

зачётный фильм!!!!!!pb.wtf



28-12-2013 12:08 Пушки, телки и азарт Скачать торрент  

Чего это фильм 11-го года засунули в 13-е ? pb.wtf



07-01-2014 11:07 Пушки, телки и азарт Скачать торрент  

На разок пойдётpb.wtf



06-06-2017 09:11 Пушки, телки и азарт Скачать торрент  

Не пойму почему рейтинг такой низкий на кинопоиске, фильмец зачотный, доставил реально. Леночка Мэтсон вообще выше всех похвал, я сначала сослепу подумал что это моя любимая Шарлиз Терон. Ну и Гэри "Старичок" Олдмэн не подкачал. Смотреть однозначно!pb.wtf



    Дорогой пользователь! Огромная просьба, поблагодарите релизера, оцените раздачу и оставьте свои комментарий, если Вы скачали Пушки, телки и азарт через торрент бесплатно! Внесите свою лепту в развитие PiratBit!
    Комментировать посты могут только пользователи прошедшие не сложную регистрацию
    Показать сообщения:    

    Пушки, телки и азарт через торрент
    Скачать бесплатно Пушки, телки и азарт
    Пушки, телки и азарт скачать торрент
    Пушки, телки и азарт смотреть онлайн
    Cкачать фильм Пушки, телки и азарт бесплатно
    Пушки, телки и азарт скачать торрент в хорошем качестве
    Пушки, телки и азарт смотреть онлайн бесплатно в хорошем качестве


    Вы не можете начинать темы
    Вы не можете отвечать на сообщения
    Вы не можете редактировать свои сообщения
    Вы не можете удалять свои сообщения
    Вы не можете голосовать в опросах
    Вы не можете прикреплять файлы к сообщениям
    Вы можете скачивать файлы