Мега распродажа FORZA HORIZON 4 ULTIMATE+ВСЕ DLC+ОНЛАЙН всего за 499р. 349 руб. (супер цена). Внимание количество ограничено!!!

iTunes

1+1

iTunes

мы

iTunes

1

1 сезон

Чернобыль

1 сезон

Ральф против интернета

Лицензия

ПШазам

8 сезон

Игра престолов

Лицензия

30
pack

ВАЖНО

!!Акция!!

Alien_RageХит недели

RePack

Resident Evil 21

ИГРА 18+

pack

RePack

Metro:Exodus

!!Акция!!

Alien_Rage

RePack

fifa19

RePack

Assassins Creed: Odyssey

RePack

NEED FOR SPEED™ PAYBACK

3 сезон

9 сезон

Бесстыжие 9 сезон

Все сериалы

все сериалы на PB.wtf

RePack

FAR CRY 5
Ребята, катастрофически не хватает 2730р. для оплаты серверов за ИЮНЬ (всвязи с блокировками трафик упал в 3 раза), 1-2р., выручайте.
  

Сновидения / In Dreams (Нил Джордан / Neil Jordan) [ 1999 , США , ужасы, триллер, драма , DVDRip, MVO] pb.wtf

Сновидения через торрент pb.wtf

Размер: 1.37 GB | Добавлен: 5 лет 6 мес. назад | Торрент скачан:95 раз
Скачать  

21-12-2013 09:15 Сновидения Скачать торрент  

Сновидения / In DreamsГод выпуска:1999
Страна: США
Жанр: ужасы, триллер, драма

Продолжительность: 01:35:30
Перевод: Профессиональный (многоголосый, закадровый)

Субтитры: Нет
Режиссер: Нил Джордан / Neil Jordan

В ролях: Аннетт Бенинг (Claire Cooper), Кэти Сагона (Rebecca Cooper), Эйдан Куинн (Paul Cooper), Роберт Дауни мл. (Vivian Thompson), Пол Гилфойл (Detective Jack Kay), Кэтлин Ланглуа (Snow White), Дженнифер Берри (Hunter), Эмма Дж. Браун (Dwarf), Дженнифер Драгон (Dwarf), Саманта Келли (Dwarf), Jennifer Caine Natenshon (Dwarf), Бетани М. Пакуин (Dwarf)
Описание:
Клэр Купер видит жуткие сны. В этих снах таинственный человек ведёт куда-то за руку маленькую девочку. Клэр знает, что этот человек приносит горе и смерть. И от него нет спасения, ибо этот человек - само зло во плоти... Постепенно страшные сны становятся предвестниками кошмаров, которые начинают происходить с Клэр наяву. Парализованная ужасом женщина ещё не знает, что в её жизнь намерен ворваться безжалостный детоубийца, с мозгом которого её уже давно соединяет телепатическая связь...
Рейтинг
kinopoisk.ru: 6.352 (622)
imdb.com: 5.30 (8645)
MPAA: R - Лицам до 17 лет обязательно присутствие взрослого
Качество: DVDRip
Формат: AVI
Видео кодек: XviD
Аудио кодек: AC3
Видео: DivX 5, 720x416 (16:9), 1595 kbps, 25 fps, 0,213 bpp
Аудио: AC3 / 5.1 / 48 kHz / 448 kbps / 16 bit© Оформление by ФёдорOFF
General
Complete name : D:раздачиSnovideniya.1999.DivX.DVDRip.avi
Format : AVI
Format/Info : Audio Video Interleave
File size : 1.37 GiB
Duration : 1h 35mn
Overall bit rate : 2 051 Kbps
Writing application : VirtualDubMod 1.5.4.1 (build 2178/release)
Writing library : VirtualDubMod build 2178/release

Video
ID : 0
Format : MPEG-4 Visual
Format settings, BVOP : 1
Format settings, QPel : No
Format settings, GMC : No warppoints
Format settings, Matrix : Default (H.263)
Muxing mode : Packed bitstream
Codec ID : DX50
Codec ID/Hint : DivX 5
Duration : 1h 35mn
Bit rate : 1 596 Kbps
Width : 720 pixels
Height : 416 pixels
Display aspect ratio : 16:9
Frame rate : 25.000 fps
Color space : YUV
Chroma subsampling : 4:2:0
Bit depth : 8 bits
Scan type : Progressive
Compression mode : Lossy
Bits/(Pixel*Frame) : 0.213
Stream size : 1.06 GiB (78%)
Writing library : DivX 6.2.5 (UTC 2006-07)

Audio
ID : 1
Format : AC-3
Format/Info : Audio Coding 3
Mode extension : CM (complete main)
Codec ID : 2000
Duration : 1h 35mn
Bit rate mode : Constant
Bit rate : 448 Kbps
Channel(s) : 6 channels
Channel positions : Front: L C R, Side: L R, LFE
Sampling rate : 48.0 KHz
Bit depth : 16 bits
Compression mode : Lossy
Delay relative to video : 859ms
Stream size : 306 MiB (22%)
Alignment : Split accross interleaves
Interleave, duration : 96 ms (2.40 video frames)
Interleave, preload duration : 96 ms
pb.wtf



Скачать Сновидения через торрент http://i5.imageban.ru/out/2013/12/21/91306af24c421dd405545800b95baaf3.jpg Скачать фильм Сновидения через торрент бесплантно в хорошем качестве Описание: Клэр Купер видит жуткие сны. В этих снах таинственный человек ведёт куда-то за руку маленькую девочку. Клэр знает, что этот ... 8.8 10 8
Info! Золотая раздача, скачанное не засчитывается.
Торрент: Зарегистрирован [2013-12-21 09:15] · скачан: 95 раз
Статус: √ проверено
Размер: 1.37 GB
Как cкачать? Как скачать Сновидения через торрент | qTorrent

% Раздел Тема Автор DL S | L
Фильмы с авторской озвучкой [ 1.46 GB ] Сновидения / In Dreams [1999 WEB-DLRip] [AVO] killermax2013 Скачать
1 | 0
HD ролики [ 1.56 GB ] Сновидения / Beata Undine [2013 Natural Tits Brunette Blowjob Cumshot Hardcore HD 1080p] sheker187 Скачать
1 | 0


>> Регистрируемся здесь <<






Отзывы и комментарии о схеме читаем и пишем здесь: ---> Отзывы и комментарии о схеме

Новые благодарочки в телеграм довольных пользователей:
скриншот   скриншот   скриншот   скриншот   скриншот

21-12-2013 14:54 Сновидения Скачать торрент  

собственно фильм то не плох,хотя и довольно не свеж ужеpb.wtf



    Дорогой пользователь! Огромная просьба, поблагодарите релизера, оцените раздачу и оставьте свои комментарий, если Вы скачали Сновидения через торрент бесплатно! Внесите свою лепту в развитие PiratBit!
    Комментировать посты могут только пользователи прошедшие не сложную регистрацию
    Показать сообщения:    

    Сновидения через торрент
    Скачать бесплатно Сновидения
    Сновидения скачать торрент
    Сновидения смотреть онлайн
    Cкачать фильм Сновидения бесплатно
    Сновидения скачать торрент в хорошем качестве
    Сновидения смотреть онлайн бесплатно в хорошем качестве


    Вы не можете начинать темы
    Вы не можете отвечать на сообщения
    Вы не можете редактировать свои сообщения
    Вы не можете удалять свои сообщения
    Вы не можете голосовать в опросах
    Вы не можете прикреплять файлы к сообщениям
    Вы можете скачивать файлы