2 сезон

iTunes

MVO

1

2 сезон

iTunes

iTunes

1 сезон

RePack

30

Новинка

ВАЖНО

ИГРА 18+

pack

RePack

MK11
pack

Легкие деньги

RePack

jed

RePack

fifa19

RePack

RDR2

RePack

NEED FOR SPEED™ PAYBACK

4 сезон

9 сезон

Бесстыжие 9 сезон

Все сериалы

все сериалы на PB.wtf

RePack

FAR CRY 5

Anonymous, доброй ночи, мы не успеваем собрать деньги на оплату серверов за декабрь и январь, помогите нам пожалуйста в это трудное время. В качестве благодарности мы отключим Вам всю рекламу на сайте (укажите свой ник в строку Ваше имя)!

×
  
Magnet ссылка

Дикая природа: шпион среди антилоп гну / Trek: Spy on the Wildebeest (Джон Даунер) [2007 г., Документальный, HDTVRip-AVC , Дубляж] pb.wtf

Дикая природа: шпион среди антилоп гну через торрент pb.wtf

Размер: 1.58 GB | Добавлен: 7 лет назад | Торрент скачан:24 раза
Скачать  

23-12-2013 07:44 Дикая природа: шпион среди антилоп гну Скачать торрент  

Дикая природа: шпион среди антилоп гну / Trek: Spy on the Wildebeest




Год выпуска: 2007
Страна: Великобритания
Жанр: Документальный,
Продолжительность: 00:58:30 + 00:58:08
Перевод: Дубляж
Субтитры: Русские, английские




Режиссер: Джон Даунер





Описание: Эта история о великом и полном опасности путешествии антилоп гну протяжённостью 3000 километров через долину Серенгети в Танзании и заповедник Масаи-Мара в Кении. Она началась с рождения детеныша, вскоре ему пришлось столкнуться с множеством опасностей. Он даже переплыл щелочное озеро. Разнообразные камеры-шпионы следили за его путешествием с совершенно новых ракурсов. Малыша ждут и более серьезные испытания, ведь он вместе со стадом продолжает свое грандиозное путешествие...
Содержание:
1. Путешествие / The Journey
2. Переправа / The Crossing






Качество: HDTVRip -AVC
Формат: MKV
Видео кодек: H.264
Аудио кодек: AC3
Видео: MPEG4, 1024 x 576, 25,000 fps, ~1750 Кбит/с
Аудио#1: AC-3, 2 ch, 192 Кбит/с





I:a1BBC. Trek Spy on the Wildebeest [2 of 2] (2007) HDTVRip.(AVC).by. -=HD-NET=-2of2.The.Crossing.2007.x264.HDTVRip.(AVC).by. -=HD-NET=-.mkv
General
Unique ID : 179154165223071494071839471017653986192 (0x86C7D64F3B569B3E88AF453D62FC6390)
Complete name : I:a1BBC. Trek Spy on the Wildebeest [2 of 2] (2007) HDTVRip.(AVC).by. -=HD-NET=-2of2.The.Crossing.2007.x264.HDTVRip.(AVC).by. -=HD-NET=-.mkv
Format : Matroska
Format version : Version 2
File size : 808 MiB
Duration : 58mn 8s
Overall bit rate : 1 943 Kbps
Encoded date : UTC 2013-08-13 16:25:52
Writing application : mkvmerge v5.8.0 ('No Sleep / Pillow') built on Sep 2 2012 15:37:04
Writing library : libebml v1.2.3 + libmatroska v1.3.0
Video #1
ID : 1
Format : AVC
Format/Info : Advanced Video Codec
Format profile : High@L4.1
Format settings, CABAC : Yes
Format settings, ReFrames : 5 frames
Codec ID : V_MPEG4/ISO/AVC
Duration : 58mn 8s
Bit rate : 1 750 Kbps
Width : 1 024 pixels
Height : 576 pixels
Display aspect ratio : 16:9
Frame rate mode : Constant
Frame rate : 25.000 fps
Color space : YUV
Chroma subsampling : 4:2:0
Bit depth : 8 bits
Scan type : Progressive
Bits/(Pixel*Frame) : 0.119
Stream size : 712 MiB (88%)
Writing library : x264 core 125 r2208 d9d2288
Encoding settings : cabac=1 / ref=5 / deblock=1:-2:-2 / analyse=0x3:0x133 / me=umh / subme=9 / psy=1 / psy_rd=1.00:0.15 / mixed_ref=1 / me_range=32 / chroma_me=1 / trellis=2 / 8x8dct=1 / cqm=0 / deadzone=21,11 / fast_pskip=0 / chroma_qp_offset=-3 / threads=12 / lookahead_threads=2 / sliced_threads=0 / nr=0 / decimate=1 / interlaced=0 / bluray_compat=0 / constrained_intra=0 / bframes=5 / b_pyramid=2 / b_adapt=0 / b_bias=0 / direct=1 / weightb=1 / open_gop=0 / weightp=2 / keyint=250 / keyint_min=25 / scenecut=40 / intra_refresh=0 / rc_lookahead=50 / rc=2pass / mbtree=1 / bitrate=1750 / ratetol=1.0 / qcomp=0.60 / qpmin=0 / qpmax=69 / qpstep=4 / cplxblur=20.0 / qblur=0.5 / ip_ratio=1.40 / aq=1:1.00
Default : Yes
Forced : No
Audio #2
ID : 2
Format : AC-3
Format/Info : Audio Coding 3
Mode extension : CM (complete main)
Format settings, Endianness : Big
Codec ID : A_AC3
Duration : 58mn 8s
Bit rate mode : Constant
Bit rate : 192 Kbps
Channel(s) : 2 channels
Channel positions : Front: L R
Sampling rate : 48.0 KHz
Bit depth : 16 bits
Compression mode : Lossy
Stream size : 79.8 MiB (10%)
Title : AC3, 192kbps, 48kHz, 2ch (Íèêîëàé Äðîçäîâ)
Language : Russian
Default : Yes
Forced : No

pb.wtf



Скачать Дикая природа: шпион среди антилоп гну через торрент http://i58.fastpic.ru/big/2013/1223/fd/262f6cc776586fa4146e37096f4e87fd.jpg Скачать фильм Дикая природа: шпион среди антилоп гну через торрент бесплантно в хорошем качестве Описание: Эта история о великом и полном опасности путешествии антилоп гну протяжённостью 3000 километров через долину Серенгети в Танзании ... 10 10 2
Info! Золотая раздача, скачанное не засчитывается.
Торрент: Зарегистрирован [2013-12-23 07:44] · скачан: 24 раз
Статус: √ проверено
Размер: 1.58 GB
Как cкачать? Как скачать Дикая природа: шпион среди антилоп гну через торрент | UTorrent

28-11-2019 20:33  

Отключить всю рекламу на сайте

    Дорогой пользователь! Огромная просьба, поблагодарите релизера, оцените раздачу и оставьте свои комментарий, если Вы скачали Дикая природа: шпион среди антилоп гну через торрент бесплатно! Внесите свою лепту в развитие PiratBit!
    Комментировать посты могут только пользователи прошедшие не сложную регистрацию
    Показать сообщения:    

    Дикая природа: шпион среди антилоп гну через торрент
    Скачать бесплатно Дикая природа: шпион среди антилоп гну
    Дикая природа: шпион среди антилоп гну скачать торрент
    Дикая природа: шпион среди антилоп гну смотреть онлайн
    Cкачать фильм Дикая природа: шпион среди антилоп гну бесплатно
    Дикая природа: шпион среди антилоп гну скачать торрент в хорошем качестве
    Дикая природа: шпион среди антилоп гну смотреть онлайн бесплатно в хорошем качестве


    Вы не можете начинать темы
    Вы не можете отвечать на сообщения
    Вы не можете редактировать свои сообщения
    Вы не можете удалять свои сообщения
    Вы не можете голосовать в опросах
    Вы не можете прикреплять файлы к сообщениям
    Вы можете скачивать файлы