1 сезон

3 сезон

iTunes

1

iTunes

MVO

iTunes

13

1 сезон

RePack

30

Deluxe

pack

Лицензия

ВАЖНО

ИГРА 18+

pack

RePack

MK11

RePack

jed

RePack

fifa19

RePack

RDR2

RePack

NEED FOR SPEED™ PAYBACK

4 сезон

9 сезон

Бесстыжие 9 сезон

Все сериалы

все сериалы на PB.wtf

RePack

FAR CRY 5

Anonymous, доброе утро, мы катастрофически не успеваем собрать деньги на оплату серверов, помогите нам пожалуйста 5,10,15р., для нас важна любая помощь . В качестве благодарности мы отключим Вам всю рекламу на сайте (укажите свой ник в строку Ваше имя)!

×
  
Magnet ссылка

Турецкий для начинающих / Turkisch fur Anfanger / Turkish for Beginners (Бора Дагтекин / Bora Dagtekin) [2012, комедия, DVD9] R5 pb.wtf

Турецкий для начинающих через торрент pb.wtf

Размер: 5.5 GB | Добавлен: 7 лет 7 мес. назад | Торрент скачан:195 раз
Скачать  

23-12-2013 09:14 Турецкий для начинающих Скачать торрент  


Турецкий для начинающих / Turkisch fur Anfanger / Turkish for Beginners
«Как выжить на острове с супермачо»
Страна: Германия
Студия: ARD Degeto Film GmbH, Bayerischer Rundfunk (BR), Constantin Film Produktion GmbH, Dare FIlmz, Norddeutscher Rundfunk (NDR), Panda Plus, Rat Pack Filmproduktion GmbH, Westdeutscher Rundfunk (WDR)
Жанр: комедия
Год выпуска: 2012
Мировая премьера: 15 марта 2012
Российская премьера: 26 сентября 2013
Дата выхода DVD: 5 декабря 2013
Продолжительность: 01:44:15
Перевод: Профессиональный (дублированный) [Лицензия]
Cубтитры: русские
Оригинальная аудиодорожка: немецкий
Режиссер: Бора Дагтекин / Bora Dagtekin
В ролях: Йозефине Пройсс, Элиас ЭмБарек, Анна Штиблих, Аднан Марал, Пега Феридони, Арнел Таки, Катарина Каали, Ник Ромео Рейманн, Фредерик Лау, Соня Герхардт...
Описание: Лена — не особо довольная своей жизнью 19-летняя девушка, которой приходится спорить не только со своей матерью, нетрадиционным психотерапевтом, но и со своим бойфрендом, который хочет больше, чем она желает ему дать. Лена хочет только, чтобы все оставили ее в покое, но этого, конечно, не происходит. Напротив, ее мать дарит своей унылой дочери путешествие в Таиланд.
К сожалению мечтам о солнце, пляже и отвязных вечеринках не суждено сбыться в связи с падением самолета. Дочь и мать выживают. Вместо того, чтобы встретиться в отеле, Лена оказывается на острове вместе с турецким мачо Чемом, его религиозной сестрой Ягмур и заикой Коста. В такой ситуации наступает хаос. В этоже время мать Лены встречает в отеле Метина, отца Чема и Ягмур.

Бонусы: Анонсы, трейлер

Качество: DVD9 R5
Формат: DVD-Video
Видео кодек: MPEG2
Аудио кодек: AC3
Видео: PAL 16:9 (720x576(0.579)) MPEG Video, 25,000 кадр/сек, 6006 Кбит/сек
Аудио #1: Russian (Dolby AC3, 6 ch) 384 Кбит/сек, 48,0 КГц
Аудио #1: Deutsch (Dolby AC3, 6 ch) 384 Кбит/сек, 48,0 КГц



Title: Turetskij.dlya.nacinajushih.2012.DVD9
Size: 5.50 Gb ( 5 764 970,00 KBytes ) - DVD-9
Enabled regions: 1, 2, 3, 4, 5, 6, 7, 8

VTS_01 :
Play Length: 00:00:10
Video: PAL 16:9 (720x576) VBR, Auto Letterboxed

VTS_02 :
Play Length: 00:00:07
Video: PAL 16:9 (720x576) VBR, Auto Letterboxed
Audio:
English (Dolby AC3, 6 ch)

VTS_03 :
Play Length: 00:02:24
Video: PAL 16:9 (720x576) VBR, Auto Letterboxed
Audio:
Russian (Dolby AC3, 2 ch)
Deutsch (Dolby AC3, 2 ch)

VTS_04 :
Play Length: 00:02:02
Video: PAL 16:9 (720x576) VBR, Auto Letterboxed
Audio:
Russian (Dolby AC3, 6 ch)
Espanol (Dolby AC3, 6 ch)

VTS_05 :
Play Length: 00:01:49
Video: PAL 16:9 (720x576) VBR, Auto Letterboxed
Audio:
Russian (Dolby AC3, 6 ch)
Deutsch (Dolby AC3, 6 ch)

VTS_06 :
Play Length: 00:01:15
Video: PAL 16:9 (720x576) VBR, Auto Letterboxed
Audio:
Russian (Dolby AC3, 2 ch)
Espanol (Dolby AC3, 2 ch)

VTS_07 :
Play Length: 00:02:09
Video: PAL 16:9 (720x576) VBR, Auto Letterboxed
Audio:
Russian (Dolby AC3, 2 ch)
English (Dolby AC3, 2 ch)

VTS_08 :
Play Length: 01:44:15
Video: PAL 16:9 (720x576) VBR, Auto Pan&Scan, Auto Letterboxed
Audio:
Russian (Dolby AC3, 6 ch)
Deutsch (Dolby AC3, 6 ch)
Subtitles:
Russian

* Menus Information *

VIDEO_TS Menu
Video:
PAL 16:9 (720x576) VBR
Auto Pan&Scan, Auto Letterboxed
English Language Unit :
Title Menu

VTS_01 Menu
Video:
PAL 16:9 (720x576) VBR
Auto Letterboxed
Audio:
Not specified (Dolby AC3, 2 ch)
English Language Unit :
Root Menu

VTS_02 Menu
Video:
PAL 4:3 (720x576) VBR
English Language Unit :
Root Menu

VTS_03 Menu
Video:
PAL 4:3 (720x576) VBR
English Language Unit :
Root Menu

VTS_04 Menu
Video:
PAL 4:3 (720x576) VBR
English Language Unit :
Root Menu

VTS_05 Menu
Video:
PAL 4:3 (720x576) VBR
English Language Unit :
Root Menu

VTS_06 Menu
Video:
PAL 4:3 (720x576) VBR
English Language Unit :
Root Menu

VTS_07 Menu
Video:
PAL 4:3 (720x576) VBR
English Language Unit :
Root Menu

VTS_08 Menu
Video:
PAL 4:3 (720x576) VBR
English Language Unit :
Root Menu
Общее
Полное имя : K:Новинки 2013Turetskij.dlya.nacinajushih.2012.DVD9VIDEO_TSVTS_08_1.VOB
Формат : MPEG-PS
Размер файла : 1024 Мбайт
Продолжительность : 20 м.
Режим общего битрейта : Переменный
Общий поток : 6912 Кбит/сек

Видео
Идентификатор : 224 (0xE0)
Формат : MPEG Video
Версия формата : Version 2
Профиль формата : Main@Main
Параметр BVOP формата : Да
Параметр матрицы формата : По умолчанию
Параметр GOP формата : M=3, N=12
Продолжительность : 20 м.
Вид битрейта : Переменный
Битрейт : 6006 Кбит/сек
Максимальный битрейт : 8500 Кбит/сек
Ширина : 720 пикселей
Высота : 576 пикселей
Соотношение сторон : 16:9
Частота кадров : 25,000 кадров/сек
Стандарт вещания : PAL
Цветовое пространство : YUV
Субдискретизация насыщенности : 4:2:0
Битовая глубина : 8 бит
Тип развёртки : Прогрессивная
Метод сжатия : С потерями
Бит/(Пиксели*Кадры) : 0.579
Временной код первого кадра : 00:00:00:00
Оригинал временного кода : Group of pictures header
Размер потока : 890 Мбайт (87%)

Аудио #1
Идентификатор : 189 (0xBD)-128 (0x80)
Формат : AC-3
Формат/Информация : Audio Coding 3
Расширение режима : CM (complete main)
Параметр Endianness формата : Big
Режим смешивания : DVD-Video
Продолжительность : 20 м.
Вид битрейта : Постоянный
Битрейт : 384 Кбит/сек
Каналы : 6 каналов
Расположение каналов : Front: L C R, Side: L R, LFE
Частота : 48,0 КГц
Битовая глубина : 16 бит
Метод сжатия : С потерями
Задержка видео : -80 мс.
Размер потока : 56,9 Мбайт (6%)

Аудио #2
Идентификатор : 189 (0xBD)-129 (0x81)
Формат : AC-3
Формат/Информация : Audio Coding 3
Расширение режима : CM (complete main)
Параметр Endianness формата : Big
Режим смешивания : DVD-Video
Продолжительность : 20 м.
Вид битрейта : Постоянный
Битрейт : 384 Кбит/сек
Каналы : 6 каналов
Расположение каналов : Front: L C R, Side: L R, LFE
Частота : 48,0 КГц
Битовая глубина : 16 бит
Метод сжатия : С потерями
Задержка видео : -80 мс.
Размер потока : 56,9 Мбайт (6%)

Текст
Идентификатор : 189 (0xBD)-32 (0x20)
Формат : RLE
Формат/Информация : Run-length encoding
Режим смешивания : DVD-Video










pb.wtf



Скачать Турецкий для начинающих через торрент http://i59.fastpic.ru/big/2013/1223/02/5ba908b729d3ea985c57335feb0a7102.jpg Скачать фильм Турецкий для начинающих через торрент бесплантно в хорошем качестве Описание: Лена — не особо довольная своей жизнью 19-летняя девушка, которой приходится спорить не только со своей матерью, нетрадиционным ... 9.5 10 6
Info! Золотая раздача, скачанное не засчитывается.
Торрент: Зарегистрирован [2013-12-23 09:14] · скачан: 195 раз
Статус: √ проверено
Размер: 5.5 GB
Как cкачать? Как скачать Турецкий для начинающих через торрент | UTorrent

28-11-2019 20:33  

Отключить всю рекламу на сайте

23-12-2013 09:51 Турецкий для начинающих Скачать торрент  

Посмотрим.Заценимpb.wtf



23-12-2013 11:39 Турецкий для начинающих Скачать торрент  

вроде как сериал был такой фильм не виделpb.wtf



    Дорогой пользователь! Огромная просьба, поблагодарите релизера, оцените раздачу и оставьте свои комментарий, если Вы скачали Турецкий для начинающих через торрент бесплатно! Внесите свою лепту в развитие PiratBit!
    Комментировать посты могут только пользователи прошедшие не сложную регистрацию
    Показать сообщения:    

    Турецкий для начинающих через торрент
    Скачать бесплатно Турецкий для начинающих
    Турецкий для начинающих скачать торрент
    Турецкий для начинающих смотреть онлайн
    Cкачать фильм Турецкий для начинающих бесплатно
    Турецкий для начинающих скачать торрент в хорошем качестве
    Турецкий для начинающих смотреть онлайн бесплатно в хорошем качестве


    Вы не можете начинать темы
    Вы не можете отвечать на сообщения
    Вы не можете редактировать свои сообщения
    Вы не можете удалять свои сообщения
    Вы не можете голосовать в опросах
    Вы не можете прикреплять файлы к сообщениям
    Вы можете скачивать файлы