Ссылка на приватное зеркало нашего сайта всего за 1$. Внимание количество ограничено!!!

2 сезон

iTunes

1 сезон

1

2 сезон

2 сезон

iTunes

1 сезон

RePack

30

Ultimate

ВАЖНО

ИГРА 18+

pack

RePack

MK11
pack

Забери бонус

RePack

jed

!!Акция!!

Alien_Rage

RePack

fifa19

RePack

Assassins Creed: Odyssey

RePack

NEED FOR SPEED™ PAYBACK

4 сезон

9 сезон

Бесстыжие 9 сезон

Все сериалы

все сериалы на PB.wtf

RePack

FAR CRY 5
  

Выжившие / Survivors / Сезон: 1 / Серии: 1-3 (6)(Джон Александер, Эндрю Ганн)[2008 г., драма, фантастика, HDTVRip] DVO [Кубик в Кубе] pb.wtf

Выжившие через торрент pb.wtf

Размер: 2.12 GB | Добавлен: 6 лет 10 мес. назад | Торрент скачан:19 раз
Скачать  

23-12-2013 16:19 Выжившие Скачать торрент  

Выжившие / Survivors

Год выпуска: 2008
Страна: Великобритания
Жанр: фантастика, драма
Продолжительность: ~1:30:00 (пилот) ~1:00:00(остальные)
Перевод:
|Профессиональный (двухголосый, закадровый) , Кубик в Кубе|
Режиссер: Джэми Пэйн / Jamie Payne, Эндрю Ганн / Andrew Gunn, Айэйн Б. МакДональд / Iain B. MacDonald
В ролях: Джули Грэм (Abby Grant), Макс Бисли (Tom Price), Пэтерсон Джозеф (Greg Preston), Зои Таппер (Anya Raczynski), Филлип Риз (Aalim Sadiq), Чахак Патель (Najid Hanif), Робин Эддисон (Sarah Boyer), Николас Гливс (Whitaker), Ронни Джатти (Sami Masood), Никки Амука-Бёрд (Samantha Willis), Энтони Флэнеган (Dexter), Джеральдин Сомервилль (Fiona Douglas)
Описание:
Что, если неведомая болезнь убила всю вашу семью и друзей. Всех, кого вы любили. Всех, кого вы встречали. Всех, кого вы не знали. Всех... Вы - в числе немногих выживших, и теперь вам предстоит начать всё сначала в чужом новом мире, где всё, что когда-то было привычным и надёжным, стало чуждым и опасным.
Рейтинг

imdb.com: 7.30 (3016)

Качество: HDTVRip
Формат: AVI
Видео кодек: XviD
Аудио кодек: MP3
Видео: XviD, 624x352 (16:9), 976 kbps, 25 fps, 0,178 bpp
Аудио №1: MP3 / 2.0 / 48 kHz / 256 kbps /
Аудио №2: MP3 / 2.0 / 48 kHz / 128 kbps /

Оформление: Messa-fan
General
Complete name : Survivors Season 1 Kybik v Kybe | Survivors.s01e01.rus.eng.Kybik.v.Kybe.avi
Format : AVI
Format/Info : Audio Video Interleave
File size : 860 MiB
Duration : 1h 27mn
Overall bit rate mode : Variable
Overall bit rate : 1 378 Kbps
Writing application : VirtualDubMod 1.5.10.2 (build 2540/release)
Writing library : VirtualDubMod build 2540/release

Video
ID : 0
Format : MPEG-4 Visual
Format profile : Advanced Simple@L5
Format settings, BVOP : 2
Format settings, QPel : No
Format settings, GMC : No warppoints
Format settings, Matrix : Default (H.263)
Codec ID : XVID
Codec ID/Hint : XviD
Duration : 1h 27mn
Bit rate : 977 Kbps
Width : 624 pixels
Height : 352 pixels
Display aspect ratio : 16:9
Frame rate : 25.000 fps
Color space : YUV
Chroma subsampling : 4:2:0
Bit depth : 8 bits
Scan type : Progressive
Compression mode : Lossy
Bits/(Pixel*Frame) : 0.178
Stream size : 610 MiB (71%)
Writing library : XviD 1.2.0.dev47 (UTC 2006-11-01)

Audio #1
ID : 1
Format : MPEG Audio
Format version : Version 1
Format profile : Layer 3
Codec ID : 55
Codec ID/Hint : MP3
Duration : 1h 27mn
Bit rate mode : Constant
Bit rate : 256 Kbps
Channel(s) : 2 channels
Sampling rate : 48.0 KHz
Compression mode : Lossy
Stream size : 160 MiB (19%)
Alignment : Aligned on interleaves
Interleave, duration : 40 ms (1.00 video frame)
Interleave, preload duration : 504 ms

Audio #2
ID : 2
Format : MPEG Audio
Format version : Version 1
Format profile : Layer 3
Mode : Joint stereo
Mode extension : MS Stereo
Codec ID : 55
Codec ID/Hint : MP3
Duration : 1h 27mn
Bit rate mode : Variable
Bit rate : 128 Kbps
Channel(s) : 2 channels
Sampling rate : 48.0 KHz
Compression mode : Lossy
Stream size : 79.2 MiB (9%)
Alignment : Aligned on interleaves
Interleave, duration : 24 ms (0.60 video frame)
Interleave, preload duration : 284 ms
Writing library : LAME3.90.
Encoding settings : -m j -V 4 -q 2 -lowpass 17.6 --abr 128


Внимание! Раздача ведётся путём добавления новых серий; при каждом добавлении создётся новый торрент. Чтобы начать докачку новой серии, пользователям необходимо сделать следующее:
(1) остановить скачивание,
(2) удалить старый торрент у себя из клиента (старые серии удалять не надо),
(3) скачать новый торрент и запустить его у себя в клиенте вместо старого, при этом указать клиенту путь в старую папку куда и должно происходить скачивание новых серий.
Ваш клиент при этом должен произвести хеширование (проверку) старой папки (если не производит сам - помогите ему сделать это), и будет докачивать только те серии которых у вас ещё нет. Старые серии при этом не удаляются, а продолжают раздаваться!
Eсли вы уже удалили старые серии, то предотвратить повторную закачку старых серий можно, отжав галочку в соответсвующих местах при запуске нового торрента. По возможности, желательно не удалять старые серии как можно дольше чтобы релизёр не столько продолжал раздавать старые серии, а смог сконцентрироваться на новых.
Добавлена 3 серия!
pb.wtf



Скачать Выжившие через торрент http://i60.fastpic.ru/big/2013/1223/18/36d74fc3c3057bb696abd85810c9e618.jpg Скачать фильм Выжившие через торрент бесплантно в хорошем качестве Описание: Что, если неведомая болезнь убила всю вашу семью и друзей. Всех, кого вы любили. Всех, кого вы встречали. Всех, кого вы не знали. ... 9.9 10 7
Info! Золотая раздача, скачанное не засчитывается.
Торрент: Зарегистрирован [2014-01-04 15:20] · скачан: 19 раз
Статус: √ проверено
Размер: 2.12 GB
Как cкачать? Как скачать Выжившие через торрент | qTorrent



Последний раз редактировалось: Messa-fan (2014-01-04 15:20), всего редактировалось 2 раз(а)

28-11-2019 20:33  

Отключить всю рекламу на сайте

23-12-2013 16:22 Выжившие Скачать торрент  

По серии каждые два-три дня.pb.wtf



23-12-2013 17:23 Выжившие Скачать торрент  

Как сериал, хороший?pb.wtf



23-12-2013 17:30 Выжившие Скачать торрент  

sergey63333
По одной серии впечатления пока положительные.pb.wtf



23-12-2013 21:59 Выжившие Скачать торрент  

смотрел его как ток появился))сериал стоящий интригующий,удивляло в кого потом превращались обычные люди такие как учителя или механики в феодалов и рабовладельцев.норм актёры это показали чёткий сериал pb.wtf



24-12-2013 05:28 Выжившие Скачать торрент  

Жаль что продолжение сериала не сняли,вышло кажется только два сезона,а так сериал хорош.pb.wtf



27-12-2013 17:14 Выжившие Скачать торрент  

Добавлена 2 серия!
pb.wtf



27-12-2013 17:23 Выжившие Скачать торрент  

И зачем его по новому надо было озвучивать? Уже давно есть все серии. Сериал муть. Посмотрел одну серию и удалил.pb.wtf



27-12-2013 17:30 Выжившие Скачать торрент  

сериал хорош и давно просмотрен.Не знаю зачем Кубики озвучивать стали старое, есть много новинок и никто не беретсяpb.wtf



27-12-2013 17:39 Выжившие Скачать торрент  

killermax2013
хиатус.
Большие сериалы ушли в "отпуск", а работать-то надо)))pb.wtf



27-12-2013 18:20 Выжившие Скачать торрент  

Messa-fan писал(а):

killermax2013
хиатус.
Большие сериалы ушли в "отпуск", а работать-то надо)))

есть много сериалов где только субтитры а озвучки нет, редко какой любитель озвучивает сам по серии в месяц.А Кубики за идею не работают,значит кто то проплатил озвучкуpb.wtf



04-01-2014 15:21 Выжившие Скачать торрент  

Добавлена 3 серия!
pb.wtf



04-01-2014 16:43 Выжившие Скачать торрент  

Сериал не впечатлил, уж слишком тема избита и заезжена до тошнотыpb.wtf



    Дорогой пользователь! Огромная просьба, поблагодарите релизера, оцените раздачу и оставьте свои комментарий, если Вы скачали Выжившие через торрент бесплатно! Внесите свою лепту в развитие PiratBit!
    Комментировать посты могут только пользователи прошедшие не сложную регистрацию
    Показать сообщения:    

    Выжившие через торрент
    Скачать бесплатно Выжившие
    Выжившие скачать торрент
    Выжившие смотреть онлайн
    Cкачать фильм Выжившие бесплатно
    Выжившие скачать торрент в хорошем качестве
    Выжившие смотреть онлайн бесплатно в хорошем качестве


    Вы не можете начинать темы
    Вы не можете отвечать на сообщения
    Вы не можете редактировать свои сообщения
    Вы не можете удалять свои сообщения
    Вы не можете голосовать в опросах
    Вы не можете прикреплять файлы к сообщениям
    Вы можете скачивать файлы