Ссылка на приватное зеркало нашего сайта всего за 1$. Внимание количество ограничено!!!

2 сезон

iTunes

1 сезон

1

iTunes

iTunes

iTunes

1 сезон

RePack

30

ИГРА 18+

pack

ВАЖНО

!!Акция!!

Alien_RageХит недели

RePack

MK11
pack

Забери бонус

RePack

jed

!!Акция!!

Alien_Rage

RePack

fifa19

RePack

Assassins Creed: Odyssey

RePack

NEED FOR SPEED™ PAYBACK

4 сезон

9 сезон

Бесстыжие 9 сезон

Все сериалы

все сериалы на PB.wtf

RePack

FAR CRY 5
  

Атомный лес / 10 серий (Алексей Лебедев) [2012 г., Мультфильм для Взрослых, SATRip] pb.wtf

Атомный лес через торрент pb.wtf

Размер: 2.62 GB | Добавлен: 6 лет 10 мес. назад | Торрент скачан:514 раз
Скачать  

23-12-2013 16:21 Атомный лес Скачать торрент  

Атомный лес
Год выпуска: 2012
Страна: Россия
Жанр: Мультфильм для Взрослых
Продолжительность: 10 серий по 22 мин.

Режиссер: Алексей Лебедев
Продюссер: Алексей Лебедев
Сценарий: Алексей Лебедев

Роли озвучивали: Михаил Хрусталёв, Андрей Левин, Елена Шульман, Антон Виноградов, Игорь Яковель, Алексей Минченок, Алексей Лебедев.

Описание: Мутанты — не всегда плохо! В далёком будущем, в котором человечество давно покорило космос, в автоматах на улицах продаются термоядерный синтез и нанотанки, люди больше похожи на лишённых эмоций инопланетян. В течение ста лет после ядерной аварии в огороженной зоне «А» выросли несколько поколений животных. Мутировав под воздействием радиации, они стали не глупее среднестатистического человека. Звери живут на останках человеческой цивилизации, которые поглотил лес, и вполне успешно пользуются её плодами. Несмотря на приобретённый ум, звери сохранили все свои инстинкты, и им постоянно приходится разрываться между привычной природой и приобретённым социумом. В чью пользу будет перевес?

Официальный сайт



Качество: SATRip
Формат: AVI
Видео кодек: XVID
Аудио кодек: MP3
Видео: 720x432, 16:9, ~1600 Kbps avg, 25 fps
Аудио: MPEG Layer 3, 48000 Hz, 2 ch, 192 kbps
Общее
Полное имя : D:Atomnij_lesAtomnij_les_04.avi
Формат : AVI
Формат/Информация : Audio Video Interleave
Размер файла : 282 Мбайт
Продолжительность : 22 м.
Общий поток : 1783 Кбит/сек
Программа кодирования : VirtualDubMod 1.5.10.2 (build 2542/release)
Библиотека кодирования : VirtualDubMod build 2542/release

Видео
Идентификатор : 0
Формат : MPEG-4 Visual
Профиль формата : Advanced Simple@L5
Параметр BVOP формата : 1
Параметр QPel формата : Нет
Параметр GMC формата : Без точки перехода
Параметр матрицы формата : Default (H.263)
Режим смешивания : Сжатый битовый поток
Идентификатор кодека : XVID
Идентификатор кодека/Подсказка : XviD
Продолжительность : 22 м.
Битрейт : 1581 Кбит/сек
Ширина : 720 пикселей
Высота : 432 пикселя
Соотношение сторон : 4:3
Соотношение сторон в оригинале : 1,667
Частота кадров : 25,000 кадров/сек
Цветовое пространство : YUV
Субдискретизация насыщенности : 4:2:0
Битовая глубина : 8 бит
Тип развёртки : Прогрессивная
Метод сжатия : С потерями
Бит/(Пиксели*Кадры) : 0.203
Размер потока : 250 Мбайт (89%)
Библиотека кодирования : XviD 64

Аудио
Идентификатор : 1
Формат : MPEG Audio
Версия формата : Version 1
Профиль формата : Layer 3
Режим : Joint stereo
Расширение режима : MS Stereo
Идентификатор кодека : 55
Идентификатор кодека/Подсказка : MP3
Продолжительность : 22 м.
Вид битрейта : Постоянный
Битрейт : 192 Кбит/сек
Каналы : 2 канала
Частота : 48,0 КГц
Метод сжатия : С потерями
Задержка видео : 8 мс.
Размер потока : 30,3 Мбайт (11%)
Выравнивание : Разделение по промежуткам
Продолжительность промежутка : 40 мс. (1,00 видеокадр)
Время предзагрузки промежутка : 500 мс.
Библиотека кодирования : LAME3.98ЄЄЄЄЄЄЄЄЄЄЄЄ













Атомный лес скачать торрент


pb.wtf



Скачать Атомный лес через торрент http://pic.kartinco.top/images/6/qxob3.jpg Скачать фильм Атомный лес через торрент бесплантно в хорошем качестве Описание: Мутанты — не всегда плохо! В далёком будущем, в котором человечество давно покорило космос, в автоматах на улицах продаются ... 9.1 10 22
Info! Золотая раздача, скачанное не засчитывается.
Торрент: Зарегистрирован [2013-12-23 16:21] · скачан: 514 раз
Статус: √ проверено
Размер: 2.62 GB
Как cкачать? Как скачать Атомный лес через торрент | qTorrent



Последний раз редактировалось: Gredfro (2013-12-24 18:58), всего редактировалось 8 раз(а)

28-11-2019 20:33  

Отключить всю рекламу на сайте

23-12-2013 16:36 Атомный лес Скачать торрент  

Не судите строго, это моя первая раздача.pb.wtf





Последний раз редактировалось: Gredfro (2013-12-23 19:01), всего редактировалось 1 раз

23-12-2013 16:37 Атомный лес Скачать торрент  

Цитата:

Скриншоты

Не пойдёт.
Как сделать скриншот?
или
сделайте скриншоты например с помощью VLC. Скачать можно здесь:
ссылка
Устанавливаете, запускаете сверху Инструменты>Настройки
скриншот  
скриншот  
Выберите куда должны сохраняться скриншоты и формат png. нажмите Сохранить и закройте плеер.

Запускаете с помощью VLC ваш файл и кликаете правой кнопкй мыши на изображение потом
скриншот  
Сделайте несколько скриншотов с разных моментов фильма (не меньше 3 и не больше 10).
Выложите полученные скриншоты на фотохостинг (fastpic.ru например).
pb.wtf



23-12-2013 18:51 Атомный лес Скачать торрент  

Gredfro А когда продолжение не знаешь???pb.wtf



23-12-2013 18:57 Атомный лес Скачать торрент  

Без понятия пока.pb.wtf



24-12-2013 20:36 Атомный лес Скачать торрент  

ништяк! смело....после смешариков))))pb.wtf



19-01-2014 15:34 Атомный лес Скачать торрент  

спасибо за раздачу, а если прибавите скорость, то ещё спасибоpb.wtf



13-05-2014 12:20 Атомный лес Скачать торрент  

прикольно :)pb.wtf



    Дорогой пользователь! Огромная просьба, поблагодарите релизера, оцените раздачу и оставьте свои комментарий, если Вы скачали Атомный лес через торрент бесплатно! Внесите свою лепту в развитие PiratBit!
    Комментировать посты могут только пользователи прошедшие не сложную регистрацию
    Показать сообщения:    

    Атомный лес через торрент
    Скачать бесплатно Атомный лес
    Атомный лес скачать торрент
    Атомный лес смотреть онлайн
    Cкачать фильм Атомный лес бесплатно
    Атомный лес скачать торрент в хорошем качестве
    Атомный лес смотреть онлайн бесплатно в хорошем качестве


    Вы не можете начинать темы
    Вы не можете отвечать на сообщения
    Вы не можете редактировать свои сообщения
    Вы не можете удалять свои сообщения
    Вы не можете голосовать в опросах
    Вы не можете прикреплять файлы к сообщениям
    Вы можете скачивать файлы