Мега распродажа FORZA HORIZON 4 ULTIMATE+ВСЕ DLC+ОНЛАЙН всего за 499р. 349 руб. (супер цена). Внимание количество ограничено!!!

iTunes

1+1

iTunes

мы

iTunes

1

1 сезон

Чернобыль

1 сезон

Ральф против интернета

Лицензия

ПШазам

8 сезон

Игра престолов

Лицензия

30
pack

ВАЖНО

!!Акция!!

Alien_RageХит недели

RePack

Resident Evil 21

ИГРА 18+

pack

RePack

Metro:Exodus

!!Акция!!

Alien_Rage

RePack

fifa19

RePack

Assassins Creed: Odyssey

RePack

NEED FOR SPEED™ PAYBACK

3 сезон

9 сезон

Бесстыжие 9 сезон

Все сериалы

все сериалы на PB.wtf

RePack

FAR CRY 5
Ребята, катастрофически не хватает 2730р. для оплаты серверов за ИЮНЬ (всвязи с блокировками трафик упал в 3 раза), 1-2р., выручайте.
  

Загадочное убийство в Манхэттэне / Manhattan Murder Mystery (Вуди Аллен / Woody Allen) [1993, Комедия, криминал, детектив, DVDRip] [AVO] (Л.Володарский) pb.wtf

Загадочное убийство в Манхэттэне через торрент pb.wtf

Размер: 1.47 GB | Добавлен: 5 лет 6 мес. назад | Торрент скачан:39 раз
Скачать  

24-12-2013 19:14 Загадочное убийство в Манхэттэне Скачать торрент  

Загадочное убийство в Манхэттэне / Manhattan Murder Mystery
Год выпуска: 1993
Страна: США
Жанр: Комедия, криминал, детектив
Продолжительность: 01:47:31
Перевод: Авторский (одноголосый, закадровый) [Леонид Володарский]
Cубтитры: нет

Режиссер: Вуди Аллен / Woody Allen

В ролях: Вуди Аллен, Дайан Китон, Джерри Адлер, Линн Коэн, Рон Рифкин, Джой Бехар, Уильям Эдди, Джон Думэниан, Сильвия Каудерс, Ира Вилер

Описание: Ларри и Кэрол — обычная супружеская пара, которая ничем не отличается от тысяч других нью — йорских семей. Но неожиданно спокойное и размеренное течение жизни нарушается, когда умирает жена их соседа. На первый взгляд, в этом несчастьи нет ничего необычного. Однако наблюдательная Кэрол замечает, что вдовец не особенно скорбит об утрате.
Она начинает настоящее расследование, шаг за шагом приближаяськ разгадке. И когда новоиспеченной Агате Кристи кажется, что зловещая тайна вот — вот раскроется, она случайно узнает в окне проезжающего автобуса умершую женщину.




Качество видео: DVDRip
Формат видео: AVI
Видео кодек: XviD
Аудио кодек: AC3
Видео: 720x400 (1.80:1), 23.976 fps, XviD build 46 ~1756 kbps avg, 0.25 bit/pixel
Аудио: 48 kHz, AC3 Dolby Digital, 2/0 (L,R) ch, ~192 kbps

Релиз -
Фильм предоставил alenavova
Звуковая дорожка: оцифровка VHS alenavova (личный архив)
Синхронизация: vik19662007
Загадочное убийство в Манхэттэне - Manhattan Murder Mystery [by alenavova].avi
Format : AVI
Format/Info : Audio Video Interleave
File size : 1.47 GiB
Duration : 1h 47mn
Overall bit rate : 1 958 Kbps
Writing application : VirtualDubModRus 1.5.10.2 (build 2542/release)
Writing library : VirtualDubMod build 2542/release

Video
ID : 0
Format : MPEG-4 Visual
Format profile : Simple@L3
Format settings, BVOP : No
Format settings, QPel : No
Format settings, GMC : No warppoints
Format settings, Matrix : Default (H.263)
Codec ID : XVID
Codec ID/Hint : XviD
Duration : 1h 47mn
Bit rate : 1 757 Kbps
Width : 720 pixels
Height : 400 pixels
Display aspect ratio : 16:9
Frame rate : 23.976 fps
Color space : YUV
Chroma subsampling : 4:2:0
Bit depth : 8 bits
Scan type : Progressive
Compression mode : Lossy
Bits/(Pixel*Frame) : 0.254
Stream size : 1.32 GiB (90%)
Writing library : XviD 1.1.2 (UTC 2006-11-01)

Audio
ID : 1
Format : AC-3
Format/Info : Audio Coding 3
Mode extension : CM (complete main)
Format settings, Endianness : Big
Codec ID : 2000
Duration : 1h 47mn
Bit rate mode : Constant
Bit rate : 192 Kbps
Channel count : 2 channels
Channel positions : Front: L R
Sampling rate : 48.0 KHz
Bit depth : 16 bits
Compression mode : Lossy
Stream size : 148 MiB (10%)
Alignment : Split accross interleaves
Interleave, duration : 42 ms (1.00 video frame)
Interleave, preload duration : 500 ms
pb.wtf



Скачать Загадочное убийство в Манхэттэне через торрент http://i2.imageban.ru/out/2013/12/24/8b38310674cc14c15927fdfcf10fa1eb.jpg Скачать фильм Загадочное убийство в Манхэттэне через торрент бесплантно в хорошем качестве Описание: Ларри и Кэрол — обычная супружеская пара, которая ничем не отличается от тысяч других нью — йорских семей. Но неожиданно ... 10 10 7
Info! Золотая раздача, скачанное не засчитывается.
Торрент: Зарегистрирован [2013-12-24 19:14] · скачан: 39 раз
Статус: √ проверено
Размер: 1.47 GB
Как cкачать? Как скачать Загадочное убийство в Манхэттэне через торрент | qTorrent


>> Регистрируемся здесь <<






Отзывы и комментарии о схеме читаем и пишем здесь: ---> Отзывы и комментарии о схеме

Новые благодарочки в телеграм довольных пользователей:
скриншот   скриншот   скриншот   скриншот   скриншот

19-09-2016 12:57 Загадочное убийство в Манхэттэне Скачать торрент  

Фильм хороший но перевод ужасный.pb.wtf



19-09-2016 14:39 Загадочное убийство в Манхэттэне Скачать торрент  

alexim писал(а):

перевод ужасный.

pb.wtf



05-07-2018 19:49 Загадочное убийство в Манхэттэне Скачать торрент  

Обычный замечательный фильм великого режиссера с прекрасным сценарием и игрой артистов. Детективная история разыграна искромётно, но она лишь фон для исследования взаимоотношений героев, ощущений при старении и размышлений о уходящей любви. Просмотр доставит большое удовольствие всем зрелым ценителям кино независимо от их возраста. Качество рипа и перевод нормальные. Спасибо за раздачу.pb.wtf



    Дорогой пользователь! Огромная просьба, поблагодарите релизера, оцените раздачу и оставьте свои комментарий, если Вы скачали Загадочное убийство в Манхэттэне через торрент бесплатно! Внесите свою лепту в развитие PiratBit!
    Комментировать посты могут только пользователи прошедшие не сложную регистрацию
    Показать сообщения:    

    Загадочное убийство в Манхэттэне через торрент
    Скачать бесплатно Загадочное убийство в Манхэттэне
    Загадочное убийство в Манхэттэне скачать торрент
    Загадочное убийство в Манхэттэне смотреть онлайн
    Cкачать фильм Загадочное убийство в Манхэттэне бесплатно
    Загадочное убийство в Манхэттэне скачать торрент в хорошем качестве
    Загадочное убийство в Манхэттэне смотреть онлайн бесплатно в хорошем качестве


    Вы не можете начинать темы
    Вы не можете отвечать на сообщения
    Вы не можете редактировать свои сообщения
    Вы не можете удалять свои сообщения
    Вы не можете голосовать в опросах
    Вы не можете прикреплять файлы к сообщениям
    Вы можете скачивать файлы