Всегда рабочее зеркало без VPN и Proxy просто перед .vidak.icu напиши любое слово или цифру, Пример http://xv46.vidak.icu

MVO

2 сезон

2 сезон

1

1 сезон

iTunes

2 сезон

13

1 сезон

Deluxe

pack

Рекомендуем

Пиратка

30

ВАЖНО

RePack

MK11

RePack

jed

RePack

fifa19

RePack

RDR2

RePack

NEED FOR SPEED™ PAYBACK

Кинопоиск HD

6 сезон

 Острые козырьки 6 сезон

Все сериалы

все сериалы на PB.wtf

RePack

FAR CRY 5

Anonymous, нам критически не хватает 5601 руб. на оплату серверов и переферии за Апрель, помоги нам пожалуйста, вся надежда только на тебя. В благодарность мы отключим тебе всю рекламу на сайте!

×
  
Magnet ссылка

Географ глобус пропил (Александр Велединский) [2013 , Россия, драма, BDRip] Лицензия pb.wtf

Географ глобус пропил через торрент pb.wtf

Размер: 1.46 GB | Добавлен: 8 лет 4 мес. назад | Торрент скачан:2005 раз
Смотреть онлайн Географ глобус пропил | Скачать    Ребята, помогите собрать деньги на оплату серверов!!!

24-12-2013 20:57 Географ глобус пропил Скачать торрент  

Географ глобус пропил

Год выпуска: 2013
Страна: Россия
Жанр: драма
Продолжительность: 02:04:51
Перевод:
|Оригинал, Лицензия|
Режиссер: Александр Велединский
В ролях: Константин Хабенский (Виктор Служкин), Елена Лядова (Надежда Служкина), Александр Робак (Будкин), Евгения Брик (Кира), Анна Уколова (Ветка), Агриппина Стеклова (Роза Борисовна), Евгения Крегжде (Сашенька), Максим Лагашкин (Колесников), Анфиса Черных (Маша Большакова), Анастасия Золотко (Тата), Виктор Узун (директор школы), Илья Коркодинов (Шуруп)
Описание:
Молодой биолог Виктор Служкин от безденежья идет работать учителем географии в обычную пермскую школу. Он борется, а потом и дружит с учениками, конфликтует с завучем, ведет десятиклассников в поход - сплавляться по реке. Еще он пьет с друзьями вино, пытается ужиться с женой и водит в детский сад маленькую дочку. Он просто живет...
Рейтинг

imdb.com: 7.70 (559)

Качество: BDRip |Исходник: Географ глобус пропил (2013) Blu-ray Disc 1080p AVC DTS-HD MA 5.1-HDClub
Формат: AVI
Видео кодек: XviD
Аудио кодек: AC3
Видео: XviD, 720x304 (2.35:1), 24.000 fps, 1 147 Kbps (0.218 bit/pixel)
Аудио: AC-3, 48.0 KHz, 6 ch, 448 Kbps, CBR

| Сэмпл (зеркало)
Оформление: Messa-fan
скриншот   скриншот   скриншот   скриншот   скриншот   скриншот   скриншот   скриншот   скриншот   скриншот  
Общее
Полное имя : Geograf.globus.propil.2013.BDRip.NNM-CLUB.avi
Формат : AVI
Формат/Информация : Audio Video Interleave
Размер файла : 1,46 Гбайт
Продолжительность : 2 ч. 4 м.
Общий поток : 1670 Кбит/сек
Программа кодирования : VirtualDubMod 1.5.10.2 (build 2540/release)
Библиотека кодирования : VirtualDubMod build 2540/release

Видео
Идентификатор : 0
Формат : MPEG-4 Visual
Профиль формата : Advanced Simple@L5
Параметр BVOP формата : 2
Параметр QPel формата : Нет
Параметр GMC формата : Без точки перехода
Параметр матрицы формата : Выборочная
Идентификатор кодека : XVID
Идентификатор кодека/Подсказка : XviD
Продолжительность : 2 ч. 4 м.
Битрейт : 1147 Кбит/сек
Ширина : 720 пикселей
Высота : 304 пикселя
Соотношение сторон : 2,35:1
Частота кадров : 24,000 кадра/сек
Цветовое пространство : YUV
Субдискретизация насыщенности : 4:2:0
Битовая глубина : 8 бит
Тип развёртки : Прогрессивная
Метод сжатия : С потерями
Бит/(Пиксели*Кадры) : 0.218
Размер потока : 1,00 Гбайт (69%)
Библиотека кодирования : XviD 1.2.1 (UTC 2008-12-04)

Аудио
Идентификатор : 1
Формат : AC-3
Формат/Информация : Audio Coding 3
Расширение режима : CM (complete main)
Параметр Endianness формата : Big
Идентификатор кодека : 2000
Продолжительность : 2 ч. 4 м.
Вид битрейта : Постоянный
Битрейт : 448 Кбит/сек
Каналы : 6 каналов
Расположение каналов : Front: L C R, Side: L R, LFE
Частота : 48,0 КГц
Битовая глубина : 16 бит
Метод сжатия : С потерями
Размер потока : 400 Мбайт (27%)
Выравнивание : Разделение по промежуткам

  • Фильм снят по мотивам романа Алексея Иванова «Географ глобус пропил» (написано в 1995 году, опубликовано в 2003 году).
  • Съёмки фильма прошли в 2011-2012 годах в Перми, Закамске, микрорайоне Нижняя Курья, посёлке Усьва Гремячинского района.
  • pb.wtf



    Скачать Географ глобус пропил через торрент https://pic1.kartinco.top/images/61/gtbre.jpg Скачать, смотреть онлайн Географ глобус пропил бесплантно в хорошем качестве Описание: Молодой биолог Виктор Служкин от безденежья идет работать учителем географии в обычную пермскую школу. Он борется, а потом и ... 9.8 10 34
    Info! Золотая раздача, скачанное не засчитывается.
    Торрент: Зарегистрирован [2013-12-24 21:08] · скачан: 2 005 раз
    Статус: √ проверено
    Размер: 1.46 GB
    Как cкачать? Как скачать Географ глобус пропил через торрент | UTorrent

    % Раздел Тема Автор DL S | L
    Наши фильмы 2013 [ 2.18 GB ] Географ глобус пропил [2013 BDRip] [] killermax2013 Скачать
    1 | 0
    Наши фильмы 2013 [ 2.19 GB ] Географ глобус пропил [2013 BDRip-AVC ] potroks Скачать
    1 | 0
    Наши фильмы (Blu-ray, BD-Remux, HDDVD) [ 16.23 GB ] Географ глобус пропил [2013 Россия BDRemux 1080p] Messa-fan Скачать
    1 | 0


    Последний раз редактировалось: Messa-fan (2013-12-24 21:18), всего редактировалось 3 раз(а)

    28-11-2019 20:33  

    Отключить всю рекламу на сайте

      Дорогой пользователь! Огромная просьба, поблагодарите релизера, оцените раздачу и оставьте свои комментарий, если Вы скачали Географ глобус пропил через торрент бесплатно!
      Комментировать посты могут только пользователи прошедшие не сложную регистрацию
      Показать сообщения:    

      Географ глобус пропил через торрент
      Скачать бесплатно Географ глобус пропил
      Географ глобус пропил скачать торрент
      Географ глобус пропил смотреть онлайн
      Cкачать фильм Географ глобус пропил бесплатно
      Географ глобус пропил скачать торрент в хорошем качестве
      Географ глобус пропил смотреть онлайн бесплатно в хорошем качестве


      Вы не можете начинать темы
      Вы не можете отвечать на сообщения
      Вы не можете редактировать свои сообщения
      Вы не можете удалять свои сообщения
      Вы не можете голосовать в опросах
      Вы не можете прикреплять файлы к сообщениям
      Вы можете скачивать файлы