Присоединяйтесь к нам в Telegram!, здесь всегда актуальный адрес сайта, оперативная поддержка и многое другое!!

>

5.9

iTunes

7.4

iTunes

9.4

1 сезон

1

7.4

2 сезон

7.2

iTunes

7.3

1 сезон

13

6.1

iTunes

8.3

GOG

30

ULTIMATE

pack

9.9

Лицензия

ВАЖНО

ИГРА 18+

pack

7.3

RePack

MK11

7.7

RePack

jed

7.8

RePack

fifa19

8.5

RePack

RDR2

RePack

NEED FOR SPEED™ PAYBACK

5 сезон

9 сезон

Бесстыжие 9 сезон

Все сериалы

все сериалы на PB.wtf

RePack

FAR CRY 5

Anonymous, доброй ночи, мы катастрофически не успеваем собрать деньги на оплату серверов, помогите нам пожалуйста 5,10,15р., для нас важна любая помощь . В качестве благодарности мы отключим Вам всю рекламу на сайте (укажите свой ник в строку Ваше имя)!

×
  
Magnet ссылка

Рикки э Повери - Видео Коллекция - 80 / Ricchi e Poveri - Video Collection - 80 [2008 г., Disco, Pop, TVRip] pb.wtf

Рикки э Повери - Видео Коллекция - 80 через торрент pb.wtf

Размер: 1.37 GB | Добавлен: 7 лет 11 мес. назад | Торрент скачан:109 раз
Смотреть онлайн Рикки э Повери - Видео Коллекция - 80 | Скачать    Ребята, помогите собрать деньги на оплату серверов!!!

26-12-2013 04:30 Рикки э Повери - Видео Коллекция - 80 Скачать торрент  

Рикки э Повери - Видео Коллекция - 80
Год выпуска: 2008
Страна: Италия
Жанр: Disco, Pop
Продолжительность: 01:04:04
Перевод: Оригинал (итальянский )

В ролях: Анджела Брамбати, Анджело Сотджю, Франко Гатти

Описание: РИКИ Э ПОВЕРИ (Ricchi e Poveri), итальянская поп-группа, представители «итало-диско»; одна из наиболее разносторонних и интересных европейских групп. Существует уже более тридцати лет.
Их творческий путь начался в 1967 с выступлений в клубах Генуи. Трое молодых людей — Анджела Брамбати, Анджело Сотджю и Франко Гатти — создали группу и, назвав ее («Богатые и бедные»), дебютировали на фестивале в Сан-Ремо с песней La Prima Cosa Bella. Довольно быстро коллектив добился успеха, а с начала 1980-х гг., после появления хита Sara Perche Ti Amo, стал популярен во многих странах мира.
01. Voulez Vous Danser
02. Mamma Maria
03. Piccolo amore
04. Cosa sei
05. Se Mi Innamoro
06. Come vorrei
07. Sara perche ti amo
08. Hasta la vista
09. Made in Italy
10. Canzone D'Amore
11. M'innamoro di te
12. Che Sara'
13. Voulez Vous Danser
14. Buona Giornata
15. Questa sera
16. Acapulco
17. E penso a te
18. Dimmi quando
19. Azzurro
20. La Prima Cosa Bella
21. E No E No
Качество: TVRip
Формат: AVI
Видео кодек: XviD
Аудио кодек: MP3
Видео: Xvid 592x448, 25.00fps, 2 864 Kbps
Аудио: MPEG Audio Layer 3, 48000Hz stereo, 177kbps
Релиз от: Lug30





General
Complete name : E:RICCHI.e.POVERI-Video.Collection.avi
Format : AVI
Format/Info : Audio Video Interleave
File size : 1.37 GiB
Duration : 1h 4mn
Overall bit rate mode : Variable
Overall bit rate : 3 055 Kbps
Writing application : VirtualDubMod 1.5.4.1 (build 2178/release)
Writing library : VirtualDubMod build 2178/release

Video
ID : 0
Format : MPEG-4 Visual
Format profile : Advanced Simple@L5
Format settings, BVOP : 1
Format settings, QPel : No
Format settings, GMC : No warppoints
Format settings, Matrix : Custom
Codec ID : XVID
Codec ID/Hint : XviD
Duration : 1h 4mn
Bit rate : 2 864 Kbps
Width : 592 pixels
Height : 448 pixels
Display aspect ratio : 4:3
Frame rate : 25.000 fps
Color space : YUV
Chroma subsampling : 4:2:0
Bit depth : 8 bits
Scan type : Progressive
Compression mode : Lossy
Bits/(Pixel*Frame) : 0.432
Stream size : 1.28 GiB (94%)
Writing library : XviD 64

Audio
ID : 1
Format : MPEG Audio
Format version : Version 1
Format profile : Layer 3
Mode : Joint stereo
Mode extension : MS Stereo
Codec ID : 55
Codec ID/Hint : MP3
Duration : 1h 4mn
Bit rate mode : Variable
Bit rate : 178 Kbps
Nominal bit rate : 192 Kbps
Channel(s) : 2 channels
Sampling rate : 48.0 KHz
Compression mode : Lossy
Stream size : 81.4 MiB (6%)
Alignment : Aligned on interleaves
Interleave, duration : 24 ms (0.60 video frame)
Interleave, preload duration : 596 ms
Writing library : LAME3.98r
Encoding settings : -m j -V 4 -q 2 -lowpass 18.6 --abr 192

pb.wtf



Скачать Рикки э Повери - Видео Коллекция - 80 через торрент https://pic1.kartinco.top/images/61/gl95m.jpg Скачать, смотреть онлайн Рикки э Повери - Видео Коллекция - 80 бесплантно в хорошем качестве Описание: РИКИ Э ПОВЕРИ (Ricchi e Poveri), итальянская поп-группа, представители «итало-диско»; одна из наиболее разносторонних и ... 9.4 10 10
Info! Золотая раздача, скачанное не засчитывается.
Торрент: Зарегистрирован [2013-12-26 04:30] · скачан: 109 раз
Статус: √ проверено
Размер: 1.37 GB
Как cкачать? Как скачать Рикки э Повери - Видео Коллекция - 80 через торрент | UTorrent

28-11-2019 20:33  

Отключить всю рекламу на сайте

26-12-2013 05:13 Рикки э Повери - Видео Коллекция - 80 Скачать торрент  

Mamma Maria

Un gatto bianco con gli occhi blu
un vecchio vaso sulla TV
Nell'aria il fumo delle candele
due guance rosse rosse come mele.
Эххх,включу под Новый Год и ужрусь мартини бьянко с оливками pb.wtf



24-10-2014 05:32 Рикки э Повери - Видео Коллекция - 80 Скачать торрент  

РЕБЯТКИ,ВСТАНТЕ НА РАЗДАЧУ ПОЖАЛУЙСТА,НЕДЕЛЮ НЕ МОГУ СКАЧАТЬ!!!pb.wtf



24-10-2014 10:00 Рикки э Повери - Видео Коллекция - 80 Скачать торрент  

РЕБЯТКИ, УГОЛЬКА ПОДБРОСТИ ПЛИЗ, ОСТАЛОСЬ НЕМНОГО ДОКАЧАТЬ!!!pb.wtf



    Дорогой пользователь! Огромная просьба, поблагодарите релизера, оцените раздачу и оставьте свои комментарий, если Вы скачали Рикки э Повери - Видео Коллекция - 80 через торрент бесплатно!
    Комментировать посты могут только пользователи прошедшие не сложную регистрацию
    Показать сообщения:    

    Рикки э Повери - Видео Коллекция - 80 через торрент
    Скачать бесплатно Рикки э Повери - Видео Коллекция - 80
    Рикки э Повери - Видео Коллекция - 80 скачать торрент
    Рикки э Повери - Видео Коллекция - 80 смотреть онлайн
    Cкачать фильм Рикки э Повери - Видео Коллекция - 80 бесплатно
    Рикки э Повери - Видео Коллекция - 80 скачать торрент в хорошем качестве
    Рикки э Повери - Видео Коллекция - 80 смотреть онлайн бесплатно в хорошем качестве


    Вы не можете начинать темы
    Вы не можете отвечать на сообщения
    Вы не можете редактировать свои сообщения
    Вы не можете удалять свои сообщения
    Вы не можете голосовать в опросах
    Вы не можете прикреплять файлы к сообщениям
    Вы можете скачивать файлы