Всегда рабочее зеркало без VPN и Proxy просто перед .vidak.icu напиши любое слово или цифру, Пример http://1qvc.vidak.icu

MVO

2 сезон

2 сезон

1

1 сезон

iTunes

2 сезон

13

1 сезон

Распродажа

pack

Рекомендуем

Пиратка

30

ВАЖНО

RePack

MK11

RePack

jed

RePack

fifa19

RePack

RDR2

RePack

NEED FOR SPEED™ PAYBACK

Кинопоиск HD

6 сезон

 Острые козырьки 6 сезон

Все сериалы

все сериалы на PB.wtf

RePack

FAR CRY 5

Anonymous, нам критически не хватает 5601 руб. на оплату серверов и переферии за Апрель, помоги нам пожалуйста, вся надежда только на тебя. В благодарность мы отключим тебе всю рекламу на сайте!

×
  
Magnet ссылка

Географ глобус пропил (Александр Велединский) [2013 г., Драма, BDRip-AVC, Лицензия] pb.wtf

Географ глобус пропил через торрент pb.wtf

Размер: 2.19 GB | Добавлен: 8 лет 4 мес. назад | Торрент скачан:2351 раз
Смотреть онлайн Географ глобус пропил | Скачать    Ребята, помогите собрать деньги на оплату серверов!!!

26-12-2013 05:24 Географ глобус пропил Скачать торрент  

Географ глобус пропил
Год выпуска: 2013
Страна: Россия / Мармот-фильм, Красная стрела
Жанр: Драма,
Продолжительность: 01:59:39
Тип релиза: Лицензия
Субтитры: Нет

Режиссер: Александр Велединский



В ролях: Константин Хабенский, Елена Лядова, Александр Робак, Евгения Брик, Анна Уколова, Евгения Крегжде, Агриппина Стеклова, Максим Лагашкин, Анфиса Черных, Андрей Прытков,

Описание: Победитель «Кинотавра», возможно, лучший (и точно самый важный) русский фильм года, экранизация одноименного и крайне удачного романа Алексея Иванова — про вечного неудачника (Константин Хабенский), вынужденно ставшего преподавателем географии в пермской школе и влюбленного во все человечество — от собственной неверной жены (блистательный выход Елены Лядовой) до нагловатых школьников, раз от раза придумывающих для него все более жестокие проверки. Почти советское по уровню (в самом лучшем смысле) и одновременно крайне современное кино, обнаруживающее героя нашего времени совсем не там, где его можно было ожидать.

Качество: BDRip-AVC
Формат: MKV
Видео кодек: H.264
Аудио кодек: AC3
Видео: 1044x438 (2.38:1), 24.000 fps, 2061 Кbps, 0.188 bit/pixel
Аудио: 48 kHz, AC3 Dolby Digital, 3/2 (L,C,R,l,r) ch, 448.00 kbps

Релиз группы:
Автор рипа: potroks





Общее
Уникальный идентификатор : 200412142999568587061713735741926271915 (0x96C5F988B3E81EFC867E8DD69CB7EBAB)
Полное имя : Geograf.Globus.Propil.2013.RUS.BDRip.x264.-HELLYWOOD.mkv
Формат : Matroska
Версия формата : Version 4 / Version 2
Размер файла : 2,19 Гбайт
Продолжительность : 2 ч. 4 м.
Общий поток : 2509 Кбит/сек
Название фильма : HELLYWOOD - rip by potroks
Дата кодирования : UTC 2013-12-26 04:59:44
Программа кодирования : mkvmerge v5.9.0 ('On The Loose') built on Dec 15 2012 16:39:58
Библиотека кодирования : libebml v1.3.0 + libmatroska v1.4.0

Видео
Идентификатор : 1
Формат : AVC
Формат/Информация : Advanced Video Codec
Профиль формата : High@L4.1
Параметр CABAC формата : Да
Параметр ReFrames формата : 10 кадров
Идентификатор кодека : V_MPEG4/ISO/AVC
Продолжительность : 2 ч. 4 м.
Битрейт : 2061 Кбит/сек
Ширина : 1044 пикселя
Высота : 438 пикселей
Соотношение сторон : 2,40:1
Режим частоты кадров : Постоянный
Частота кадров : 24,000 кадра/сек
Цветовое пространство : YUV
Субдискретизация насыщенности : 4:2:0
Битовая глубина : 8 бит
Тип развёртки : Прогрессивная
Бит/(Пиксели*Кадры) : 0.188
Размер потока : 1,75 Гбайт (80%)
Заголовок : Географ глобус пропил
Библиотека кодирования : x264 core 130 r2273 b3065e6
Настройки программы : cabac=1 / ref=10 / deblock=1:-2:-2 / analyse=0x3:0x133 / me=umh / subme=11 / psy=1 / psy_rd=1.12:0.03 / mixed_ref=1 / me_range=48 / chroma_me=1 / trellis=2 / 8x8dct=1 / cqm=0 / deadzone=21,11 / fast_pskip=0 / chroma_qp_offset=-3 / threads=9 / lookahead_threads=7 / sliced_threads=0 / nr=0 / decimate=0 / interlaced=0 / bluray_compat=0 / constrained_intra=0 / bframes=11 / b_pyramid=2 / b_adapt=2 / b_bias=0 / direct=3 / weightb=1 / open_gop=0 / weightp=2 / keyint=250 / keyint_min=23 / scenecut=40 / intra_refresh=0 / rc_lookahead=60 / rc=2pass / mbtree=0 / bitrate=2061 / ratetol=1.0 / qcomp=0.70 / qpmin=0 / qpmax=69 / qpstep=4 / cplxblur=20.0 / qblur=0.5 / vbv_maxrate=20000 / vbv_bufsize=20000 / nal_hrd=none / ip_ratio=1.35 / pb_ratio=1.25 / aq=1:0.70
Язык : Russian
Default : Да
Forced : Нет

Аудио
Идентификатор : 2
Формат : AC-3
Формат/Информация : Audio Coding 3
Расширение режима : CM (complete main)
Параметр Endianness формата : Big
Идентификатор кодека : A_AC3
Продолжительность : 2 ч. 4 м.
Вид битрейта : Постоянный
Битрейт : 448 Кбит/сек
Каналы : 5 каналов
Расположение каналов : Front: L C R, Side: L R
Частота : 48,0 КГц
Битовая глубина : 16 бит
Метод сжатия : С потерями
Размер потока : 400 Мбайт (18%)
Заголовок : DD 5.0 @ 448 kbps
Язык : Russian
Default : Да
Forced : Нет

Меню
00:00:00.000 : en:00:00:00.000
00:12:18.708 : en:00:12:18.708
00:18:58.291 : en:00:18:58.291
00:27:08.541 : en:00:27:08.541
00:35:54.125 : en:00:35:54.125
00:45:32.458 : en:00:45:32.458
00:53:58.333 : en:00:53:58.333
01:02:12.333 : en:01:02:12.333
01:12:47.416 : en:01:12:47.416
01:20:55.041 : en:01:20:55.041
01:29:32.583 : en:01:29:32.583
01:36:47.916 : en:01:36:47.916
01:44:25.291 : en:01:44:25.291
01:52:39.250 : en:01:52:39.250
01:57:48.916 : en:01:57:48.916

pb.wtf



Скачать Географ глобус пропил через торрент http://s019.radikal.ru/i635/1312/b6/d7375b09e3e6.png Скачать, смотреть онлайн Географ глобус пропил бесплантно в хорошем качестве Описание: Победитель «Кинотавра», возможно, лучший (и точно самый важный) русский фильм года, экранизация одноименного и крайне удачного ... 9.6 10 28
Info! Золотая раздача, скачанное не засчитывается.
Торрент: Зарегистрирован [2013-12-26 05:24] · скачан: 2 351 раз
Статус: √ проверено
Размер: 2.19 GB
Как cкачать? Как скачать Географ глобус пропил через торрент | UTorrent

% Раздел Тема Автор DL S | L
Наши фильмы 2013 [ 2.18 GB ] Географ глобус пропил [2013 BDRip] [] killermax2013 Скачать
1 | 0
Наши фильмы (HD, WEB-DL 720p, 1080p) [ 10.47 GB ] Географ глобус пропил [2013 BDRip 1080p] Newton5 Скачать
1 | 0
Наши фильмы 2013 [ 782 MB ] Географ глобус пропил [2013 Россия BDRip] dexter lex Скачать
1 | 0
Наши фильмы (DVD фильмы) [ 6.7 GB ] Географ глобус пропил [2013 DVD9] R5 voovaz Скачать
1 | 0
Наши фильмы 2013 [ 1.46 GB ] Географ глобус пропил [2013 Россия BDRip] dexter lex Скачать
1 | 0
Наши фильмы (Blu-ray, BD-Remux, HDDVD) [ 16.23 GB ] Географ глобус пропил [2013 Россия BDRemux 1080p] Messa-fan Скачать
1 | 0
Наши фильмы 2013 [ 1.46 GB ] Географ глобус пропил [2013 Россия BDRip] Messa-fan Скачать
1 | 0


Последний раз редактировалось: potroks (2013-12-26 05:34), всего редактировалось 1 раз

28-11-2019 20:33  

Отключить всю рекламу на сайте

26-12-2013 05:30 Географ глобус пропил Скачать торрент  

в исходнике LFE канал был пустой, поэтому я его убралpb.wtf



30-01-2014 07:30 Географ глобус пропил Скачать торрент  

potroks
спасибо за раздачу!
много наслышан хорошего про фильм.
качаю, мой любимый размерчик mkv...

RS: отличный фильм, долгое время был под впечатлением просмотра!
Наверно самый лучший отечественный фильм за последнее время.pb.wtf



    Дорогой пользователь! Огромная просьба, поблагодарите релизера, оцените раздачу и оставьте свои комментарий, если Вы скачали Географ глобус пропил через торрент бесплатно!
    Комментировать посты могут только пользователи прошедшие не сложную регистрацию
    Показать сообщения:    

    Географ глобус пропил через торрент
    Скачать бесплатно Географ глобус пропил
    Географ глобус пропил скачать торрент
    Географ глобус пропил смотреть онлайн
    Cкачать фильм Географ глобус пропил бесплатно
    Географ глобус пропил скачать торрент в хорошем качестве
    Географ глобус пропил смотреть онлайн бесплатно в хорошем качестве


    Вы не можете начинать темы
    Вы не можете отвечать на сообщения
    Вы не можете редактировать свои сообщения
    Вы не можете удалять свои сообщения
    Вы не можете голосовать в опросах
    Вы не можете прикреплять файлы к сообщениям
    Вы можете скачивать файлы