Присоединяйтесь к нам в Telegram!, здесь всегда актуальный адрес сайта, оперативная поддержка и многое другое!!

>

5.9

iTunes

7.4

iTunes

9.4

1 сезон

1

7.4

2 сезон

7.2

iTunes

7.3

1 сезон

13

6.1

iTunes

8.3

GOG

30

ULTIMATE

pack

9.9

Лицензия

ВАЖНО

ИГРА 18+

pack

7.3

RePack

MK11

7.7

RePack

jed

7.8

RePack

fifa19

8.5

RePack

RDR2

RePack

NEED FOR SPEED™ PAYBACK

5 сезон

9 сезон

Бесстыжие 9 сезон

Все сериалы

все сериалы на PB.wtf

RePack

FAR CRY 5

Anonymous, доброе утро, мы катастрофически не успеваем собрать деньги на оплату серверов, помогите нам пожалуйста 5,10,15р., для нас важна любая помощь . В качестве благодарности мы отключим Вам всю рекламу на сайте (укажите свой ник в строку Ваше имя)!

×
  
Magnet ссылка

Мираж - Снова вместе [1986-1988 г., Pop, VHSRip] pb.wtf

Мираж - Снова вместе через торрент pb.wtf

Размер: 1.37 GB | Добавлен: 7 лет 11 мес. назад | Торрент скачан:191 раз
Смотреть онлайн Мираж - Снова вместе | Скачать    Ребята, помогите собрать деньги на оплату серверов!!!

26-12-2013 14:10 Мираж - Снова вместе Скачать торрент  

Мираж - Снова вместе
Год выпуска: 1986-1988
Страна: СССР,Россия
Жанр: Pop,
Продолжительность: 01:07:49
Перевод: Оригинал

В ролях: Николь Амбразайтис, Евгения Морозова, Елена Степанюк, Мария Харчева, Екатерина Болдышева, Наталия Гулькина, Маргарита Суханкина, Татьяна Овсиенко, Наталья Ветлицкая, Светлана Разина

Описание: «Мираж» — советская, а затем российская музыкальная группа, работающая, в основном, в стиле евродиско. В феврале 1986 года, коллектив получил название «Мираж» и вскоре обосновался в СПМ «Рекорд», где Литягин собрал студию для профессиональной записи. Спустя некоторое время Литягиным было сочинено 12 композиций, на которые поэт Валерий Соколов положил стихи, ориентированные на женский вокал. Для исполнения вокальных партий к первым песням авторы пригласили Маргариту Суханкину. Согласившись, певица приняла участие в записи композиций «Звёзды нас ждут», «Видео» и «Эта ночь», однако участвовать в записи остального материала для будущего альбома отказалась, так как намеревалась сделать оперную карьеру и не хотела быть замеченной в группе, исполняющей популярную музыку…
1. Эта ночь (Николь Амбразайтис, Евгения Морозова, Елена Степанюк и Мария Харчева)
2. Я больше не прошу (Екатерина Болдышева)
3. Я жду тебя (Екатерина Болдышева)
4. Я не хочу (Наталия Гулькина)
5. Я снова жду тебя (голос Маргариты Суханкиной )
6. Мерцает ночь (Наталия Гулькина, Маргарита Суханкина)
7. Музыка нас связала (Екатерина Болдышева)
8. Новый герой (Татьяна Овсиенко)
9. Просто мираж (Наталия Гулькина, Маргарита Суханкина)
10. Солнечное лето (Наталия Гулькина)
11. Связанные одной песней (пародия голос Маргариты Суханкиной)
12. Ты словно тень (Екатерина Болдышева)
13. Я жду тебя (2) (Екатерина Болдышева)
14. MegaMIX (Наталья Ветлицкая)
15. Где я (Светлана Разина)
16. Наступает ночь (Светлана Разина)
17. Музыка нас связала (2) (Светлана Разина)
18. Верю я (Екатерина Болдышева)
Качество: VHSRip
Формат: AVI
Видео кодек: XviD
Аудио кодек: AC3
Видео: Xvid 720x544, 25.00fps, 2 688 Kbps
Аудио: Dolby AC3, 48000Hz stereo, 192kbps
Релиз от: cobra2000





General
Complete name : E:mirag_snova_vmeste_[tfile.avi
Format : AVI
Format/Info : Audio Video Interleave
File size : 1.37 GiB
Duration : 1h 7mn
Overall bit rate : 2 887 Kbps
Writing application : VirtualDubMod 1.5.4.1 (build 2178/release)
Writing library : VirtualDubMod build 2178/release

Video
ID : 0
Format : MPEG-4 Visual
Format profile : Advanced Simple@L5
Format settings, BVOP : 1
Format settings, QPel : No
Format settings, GMC : No warppoints
Format settings, Matrix : Custom
Codec ID : XVID
Codec ID/Hint : XviD
Duration : 1h 7mn
Bit rate : 2 688 Kbps
Width : 720 pixels
Height : 544 pixels
Display aspect ratio : 4:3
Frame rate : 25.000 fps
Color space : YUV
Chroma subsampling : 4:2:0
Bit depth : 8 bits
Scan type : Progressive
Compression mode : Lossy
Bits/(Pixel*Frame) : 0.274
Stream size : 1.27 GiB (93%)
Writing library : XviD 64

Audio
ID : 1
Format : AC-3
Format/Info : Audio Coding 3
Mode extension : CM (complete main)
Codec ID : 2000
Duration : 1h 7mn
Bit rate mode : Constant
Bit rate : 192 Kbps
Channel(s) : 2 channels
Channel positions : Front: L R
Sampling rate : 48.0 KHz
Bit depth : 16 bits
Compression mode : Lossy
Stream size : 93.1 MiB (7%)
Alignment : Split accross interleaves
Interleave, duration : 96 ms (2.40 video frames)
Interleave, preload duration : 96 ms

pb.wtf



Скачать Мираж - Снова вместе через торрент https://pic1.kartinco.top/images/61/c87p7.jpg Скачать, смотреть онлайн Мираж - Снова вместе [1986-1988 г., Pop, VHSRip] бесплантно в хорошем качестве Описание: «Мираж» — советская, а затем российская музыкальная группа, работающая, в основном, в стиле евродиско. В феврале 1986 года, ... 9.8 10 12
Info! Золотая раздача, скачанное не засчитывается.
Торрент: Зарегистрирован [2013-12-26 14:10] · скачан: 191 раз
Статус: √ проверено
Размер: 1.37 GB
Как cкачать? Как скачать Мираж - Снова вместе через торрент | UTorrent

28-11-2019 20:33  

Отключить всю рекламу на сайте

27-12-2013 02:18 Мираж - Снова вместе Скачать торрент  

Спасибо за наше детство !!!http://pb.wtf/posting.php?mode=editpost&p=664707# P.S.-Как вставить у Вас смайлик-что-бы показывался-понять не могу !pb.wtf



27-12-2013 04:29 Мираж - Снова вместе Скачать торрент  

АндрейВл писал(а):

Спасибо за наше детство !!!http://pb.wtf/posting.php?mode=editpost&p=664707# P.S.-Как вставить у Вас смайлик-что-бы показывался-понять не могу !

попробуйте залить на multi-uppb.wtf



    Дорогой пользователь! Огромная просьба, поблагодарите релизера, оцените раздачу и оставьте свои комментарий, если Вы скачали Мираж - Снова вместе через торрент бесплатно!
    Комментировать посты могут только пользователи прошедшие не сложную регистрацию
    Показать сообщения:    

    Мираж - Снова вместе через торрент
    Скачать бесплатно Мираж - Снова вместе
    Мираж - Снова вместе скачать торрент
    Мираж - Снова вместе смотреть онлайн
    Cкачать фильм Мираж - Снова вместе бесплатно
    Мираж - Снова вместе скачать торрент в хорошем качестве
    Мираж - Снова вместе смотреть онлайн бесплатно в хорошем качестве


    Вы не можете начинать темы
    Вы не можете отвечать на сообщения
    Вы не можете редактировать свои сообщения
    Вы не можете удалять свои сообщения
    Вы не можете голосовать в опросах
    Вы не можете прикреплять файлы к сообщениям
    Вы можете скачивать файлы