Всегда рабочее зеркало просто перед .vidak.icu напиши любое слово или цифру, Пример http://ot0.vidak.icu

>

7.4

iTunes

7.4

2 сезон

9.4

1 сезон

1

7.4

2 сезон

7.2

iTunes

6.0

MVO

13

6.1

iTunes

8.3

Пиратка

30

ULTIMATE

pack

9.9

Лицензия

ВАЖНО

ИГРА 18+

pack

7.3

RePack

MK11

7.7

RePack

jed

7.8

RePack

fifa19

8.5

RePack

RDR2

RePack

NEED FOR SPEED™ PAYBACK

1 сезон

9 сезон

Бесстыжие 9 сезон

Все сериалы

все сериалы на PB.wtf

RePack

FAR CRY 5

Anonymous, доброй ночи, мы катастрофически не успеваем собрать деньги на оплату серверов, помогите нам пожалуйста 5,10,15р., для нас важна любая помощь . В качестве благодарности мы отключим Вам всю рекламу на сайте (укажите свой ник в строку Ваше имя)!

×
  
Magnet ссылка

3096 дней / 3096 Tage (Шерри Хорман) [2013 г., драма, криминал, BDRip, Авторский (А. Алексеев)] pb.wtf

3096 дней через торрент pb.wtf

Размер: 2.06 GB | Добавлен: 8 лет назад | Торрент скачан:1102 раза
Смотреть онлайн 3096 дней | Скачать    Ребята, помогите собрать деньги на оплату серверов!!!

26-12-2013 17:27 3096 дней Скачать торрент  

3096 дней / 3096 Tage
Год выпуска: 2013
Страна: Германия / Constantin Film Produktion, ARD Degeto Film, Norddeutscher Rundfunk (NDR)
Жанр: драма, криминал,
Продолжительность: 01:49:58
Перевод: Авторский (А. Алексеев)

Режиссер: Шерри Хорман



В ролях: Антония Кэмпбелл-Хьюджес, Туре Линдхардт, Амелия Пиджон, Трине Дюрхольм, Дирбла Моллой, Рёланд Визнеккер, Эллен Швирс, Эрни Мангольд, Себастьян Вебер, ,

Описание: Фильм основан на реальной истории похищения австрийской девочки Наташи Кампуш, совершенное бывшим техником Вольфгангом Приклопилом, когда ей было 10 лет. В его плену она провела более восьми лет, или 3096 дней.

Качество: BDRip
Формат: AVI
Видео кодек: XviD
Аудио кодек: AC3
Видео: 720x400 (1.80:1), 23.976 fps, XviD build 50 ~2220 kbps avg, 0.32 bit/pixel
Аудио: 48 kHz, AC3 Dolby Digital, 3/2 (L,C,R,l,r) + LFE ch, ~448 kbps

скриншот   скриншот   скриншот   скриншот   скриншот  

Общее

Полное имя : G:кино3096.Days.2013.BDRip.avi
Формат : AVI
Формат/Информация : Audio Video Interleave
Профиль формата : OpenDML
Размер файла : 2,06 Гбайт
Продолжительность : 1 ч. 49 м.
Общий поток : 2676 Кбит/сек
Название фильма : 3096.Days.2013.BDRip.avi
Режиссёр : by coc900
Программа кодирования : VirtualDubMod 1.5.10.3 | www.virtualdub-fr.org || (build 2550/release)

Видео
Идентификатор : 0
Формат : MPEG-4 Visual
Профиль формата : Advanced Simple@L5
Параметр BVOP формата : 2
Параметр QPel формата : Нет
Параметр GMC формата : Без точки перехода
Параметр матрицы формата : Default (H.263)
Идентификатор кодека : XVID
Идентификатор кодека/Подсказка : XviD
Продолжительность : 1 ч. 49 м.
Битрейт : 2215 Кбит/сек
Ширина : 720 пикс.
Высота : 400 пикс.
Соотношение сторон : 16:9
Частота кадров : 23,976 кадр/сек
Цветовое пространство : YUV
Подвыборка цветности : 4:2:0
Битовая глубина : 8 бит
Тип развёртки : Прогрессивная
Метод сжатия : С потерями
Бит/(Пиксели*Кадры) : 0.321
Размер потока : 1,70 Гбайт (83%)
Библиотека кодирования : XviD 1.2.1 (UTC 2008-12-04)

Аудио
Идентификатор : 1
Формат : AC-3
Формат/Информация : Audio Coding 3
Расширение режима : CM (complete main)
Идентификатор кодека : 2000
Продолжительность : 1 ч. 49 м.
Вид битрейта : Постоянный
Битрейт : 448 Кбит/сек
Канал(ы) : 6 канала(ов)
Расположение каналов : Front: L C R, Side: L R, LFE
Частота : 48,0 КГц
Битовая глубина : 16 бит
Метод сжатия : С потерями
Размер потока : 352 Мбайт (17%)
Выравнивание : Разделение по промежуткам
Продолжительность промежутка : 42 мс. (1,00 видеокадр)
Время предзагрузки промежутка : 500 ms

pb.wtf



Скачать 3096 дней через торрент https://pic1.kartinco.top/images/61/86k43.jpg Скачать, смотреть онлайн 3096 дней бесплантно в хорошем качестве Описание: Фильм основан на реальной истории похищения австрийской девочки Наташи Кампуш, совершенное бывшим техником Вольфгангом ... 9.4 10 29
Info! Золотая раздача, скачанное не засчитывается.
Торрент: Зарегистрирован [2013-12-26 17:33] · скачан: 1 102 раз
Статус: √ проверено
Размер: 2.06 GB
Как cкачать? Как скачать 3096 дней через торрент | UTorrent



Последний раз редактировалось: coc900 (2013-12-26 17:40), всего редактировалось 2 раз(а)

28-11-2019 20:33  

Отключить всю рекламу на сайте

26-12-2013 17:47 3096 дней Скачать торрент  

как фильм? стоит качать?pb.wtf



26-12-2013 18:46 3096 дней Скачать торрент  

jbed писал(а):

как фильм? стоит качать?

Мне понравился. Жуткий, но интересный, тем более по реальным событиям. Первая половина вообще жестяк, жалко лолю pb.wtf



27-12-2013 18:44 3096 дней Скачать торрент  

bobik писал(а):

jbed писал(а):

как фильм? стоит качать?

Мне понравился. Жуткий, но интересный, тем более по реальным событиям. Первая половина вообще жестяк, жалко лолю

Да сейчас все по реальным событиям снимают (паронормальные явления, тоже по реальным событиям снимали...) Даешь Маркетинг!pb.wtf



28-12-2013 19:13 3096 дней Скачать торрент  

Скучно, просмотрел больше половины, а потом бегло пролистал до концовки... иначе просто бы окончательно заснул бы...pb.wtf



28-12-2013 23:29 3096 дней Скачать торрент  

Skatcher2 писал(а):

Да сейчас все по реальным событиям снимают (паронормальные явления, тоже по реальным событиям снимали...) Даешь Маркетинг!

Не, в отличие от последних фильмов, где реальных событий от силы 5%, это фильм снят в точности как было в реальности. Ну за исключением разве что сцен как он её насиловал в 10-ти летнем возрасте и эту комнату-бункер не он для неё построил, а его дед, который был помешан на возможности ядерной войныpb.wtf



29-12-2013 21:36 3096 дней Скачать торрент  

А я реально заснул на середине.
фильм - тягомотина, причем изначально понятно чем он кончится...
ЗЫ Тема сисек раскрыта ;)pb.wtf



29-12-2013 23:21 3096 дней Скачать торрент  

20-11-2018 19:35 3096 дней Скачать торрент  

NikitinAO писал(а):

А я реально заснул на середине.
фильм - тягомотина, причем изначально понятно чем он кончится...
ЗЫ Тема сисек раскрыта ;)

Каких сисек? Ты дебил?pb.wtf



20-11-2018 19:46 3096 дней Скачать торрент  

Skatcher2 писал(а):

Скучно, просмотрел больше половины, а потом бегло пролистал до концовки... иначе просто бы окончательно заснул бы...

А что там должно быть? Экшен и жёский трах? !!!
Это было в реальности. И фильм снят на этом. Конечно будет ак ты сказал скучно!!!!!!pb.wtf



    Дорогой пользователь! Огромная просьба, поблагодарите релизера, оцените раздачу и оставьте свои комментарий, если Вы скачали 3096 дней через торрент бесплатно!
    Комментировать посты могут только пользователи прошедшие не сложную регистрацию
    Показать сообщения:    

    3096 дней через торрент
    Скачать бесплатно 3096 дней
    3096 дней скачать торрент
    3096 дней смотреть онлайн
    Cкачать фильм 3096 дней бесплатно
    3096 дней скачать торрент в хорошем качестве
    3096 дней смотреть онлайн бесплатно в хорошем качестве


    Вы не можете начинать темы
    Вы не можете отвечать на сообщения
    Вы не можете редактировать свои сообщения
    Вы не можете удалять свои сообщения
    Вы не можете голосовать в опросах
    Вы не можете прикреплять файлы к сообщениям
    Вы можете скачивать файлы