Ссылка на приватное зеркало нашего сайта всего за 1$. Внимание количество ограничено!!!

2 сезон

iTunes

1 сезон

1

iTunes

iTunes

iTunes

1 сезон

RePack

30

ИГРА 18+

pack

ВАЖНО

!!Акция!!

Alien_RageХит недели

RePack

MK11
pack

Забери бонус

RePack

jed

!!Акция!!

Alien_Rage

RePack

fifa19

RePack

Assassins Creed: Odyssey

RePack

NEED FOR SPEED™ PAYBACK

4 сезон

9 сезон

Бесстыжие 9 сезон

Все сериалы

все сериалы на PB.wtf

RePack

FAR CRY 5
  

Стервятник / Sep (Еугениуш Корин) [2013 г., боевик, триллер, HDRip, Любительский одноголосый] pb.wtf

Стервятник через торрент pb.wtf

Размер: 1.47 GB | Добавлен: 6 лет 9 мес. назад | Торрент скачан:209 раз
Скачать  

27-12-2013 17:12 Стервятник Скачать торрент  

Стервятник / Sep
Год выпуска: 2013
Страна: Польша / Scorpio Studio
Жанр: боевик, триллер
Продолжительность: 02:07:10
Перевод: Любительский одноголосый (Xixidok)

Режиссер: Еугениуш Корин



В ролях: Михал Жебровский, Даниэль Ольбрыхский, Анна Пржыбыльска, Анджей Северин, Павел Малашинский, Петр Фрончевский, Мирослав Бака, Веслав Кичи, Пжемыслав Садовски, Конрад Маршалек,

Описание: В центре Европы бесследно начинают исчезать люди. Расследование попадает в руки Стервятника — полицейского, который, кажется, лишён каких-либо чувств. Твердый, неподкупный, без обязательств и услуг в отношении других. До момента, когда знакомится с Наташей — женщиной, непохожей на тех, которых встречал до сих пор.

Стервятник начнет опасную игру с противником, опережающим его всего на один шаг. Он откроет мир, в котором люди ведут двойную жизнь. Первый раз логическое мышление загонит его в безвыходную ловушку. Неожиданно из ловца он превратится в дичь. Балансируя на грани страсти и рассудка, мира логики и хитрой манипуляции, будет вынужден ответить на вопрос: есть ли что более ценное, чем жизнь?

Качество: HDRip
Формат: AVI
Видео кодек: XviD
Аудио кодек: AC3
Видео: 720x304 (2.37:1), 25 fps, XviD build 50 ~1448 kbps avg, 0.26 bit/pixel
Аудио: 48 kHz, AC3 Dolby Digital, 2/0 (L,R) ch, ~192 kbps

скриншот   скриншот   скриншот   скриншот   скриншот   скриншот   скриншот   скриншот   скриншот   скриншот  

Общее
Полное имя : G:киноStervjatnik.2013.L1.HDRip.avi
Формат : AVI
Формат/Информация : Audio Video Interleave
Размер файла : 1,47 Гбайт
Продолжительность : 2 ч. 7 м.
Общий поток : 1651 Кбит/сек
Название фильма : Stervjatnik.2013.L1.HDRip.avi
Режиссёр : by coc900
Программа кодирования : VirtualDubMod 1.5.10.3 | www.virtualdub-fr.org || (build 2550/release)

Видео
Идентификатор : 0
Формат : MPEG-4 Visual
Профиль формата : Advanced Simple@L5
Параметр BVOP формата : 2
Параметр QPel формата : Нет
Параметр GMC формата : Без точки перехода
Параметр матрицы формата : Default (H.263)
Идентификатор кодека : XVID
Идентификатор кодека/Подсказка : XviD
Продолжительность : 2 ч. 7 м.
Битрейт : 1449 Кбит/сек
Ширина : 720 пикс.
Высота : 304 пикс.
Соотношение сторон : 2,35:1
Частота кадров : 25,000 кадр/сек
Цветовое пространство : YUV
Подвыборка цветности : 4:2:0
Битовая глубина : 8 бит
Тип развёртки : Прогрессивная
Метод сжатия : С потерями
Бит/(Пиксели*Кадры) : 0.265
Размер потока : 1,29 Гбайт (88%)
Библиотека кодирования : XviD 1.2.1 (UTC 2008-12-04)

Аудио
Идентификатор : 1
Формат : AC-3
Формат/Информация : Audio Coding 3
Расширение режима : CM (complete main)
Идентификатор кодека : 2000
Продолжительность : 2 ч. 7 м.
Вид битрейта : Постоянный
Битрейт : 192 Кбит/сек
Канал(ы) : 2 канала(ов)
Расположение каналов : Front: L R
Частота : 48,0 КГц
Битовая глубина : 16 бит
Метод сжатия : С потерями
Размер потока : 175 Мбайт (12%)
Выравнивание : Разделение по промежуткам
Продолжительность промежутка : 40 мс. (1,00 видеокадр)
Время предзагрузки промежутка : 500 ms

pb.wtf



Скачать Стервятник через торрент http://pic.kartinco.top/images/6/wcxc7.jpg Скачать фильм Стервятник через торрент бесплантно в хорошем качестве Описание: В центре Европы бесследно начинают исчезать люди. Расследование попадает в руки Стервятника — полицейского, который, кажется, ... 9.5 10 13
Info! Золотая раздача, скачанное не засчитывается.
Торрент: Зарегистрирован [2013-12-27 17:12] · скачан: 209 раз
Статус: T временная
Размер: 1.47 GB
Как cкачать? Как скачать Стервятник через торрент | qTorrent

28-11-2019 20:33  

Отключить всю рекламу на сайте

27-12-2013 19:41 Стервятник Скачать торрент  

Не знаю что за фильм, но на кинопоиске интересные оценки от 1 до 10 pb.wtf



28-12-2013 04:15 Стервятник Скачать торрент  

В фильме мало экшена, фильм на 6-7 из за концовки. Тем кто любит подумать можно посмотреть.pb.wtf



    Дорогой пользователь! Огромная просьба, поблагодарите релизера, оцените раздачу и оставьте свои комментарий, если Вы скачали Стервятник через торрент бесплатно! Внесите свою лепту в развитие PiratBit!
    Комментировать посты могут только пользователи прошедшие не сложную регистрацию
    Показать сообщения:    

    Стервятник через торрент
    Скачать бесплатно Стервятник
    Стервятник скачать торрент
    Стервятник смотреть онлайн
    Cкачать фильм Стервятник бесплатно
    Стервятник скачать торрент в хорошем качестве
    Стервятник смотреть онлайн бесплатно в хорошем качестве


    Вы не можете начинать темы
    Вы не можете отвечать на сообщения
    Вы не можете редактировать свои сообщения
    Вы не можете удалять свои сообщения
    Вы не можете голосовать в опросах
    Вы не можете прикреплять файлы к сообщениям
    Вы можете скачивать файлы