Ссылка на приватное зеркало нашего сайта всего за 1$. Внимание количество ограничено!!!

2 сезон

iTunes

1 сезон

1

2 сезон

2 сезон

iTunes

1 сезон

RePack

30

Новинка

ВАЖНО

ИГРА 18+

pack

RePack

MK11
pack

Забери бонус

RePack

jed

!!Акция!!

Alien_Rage

RePack

fifa19

RePack

Assassins Creed: Odyssey

RePack

NEED FOR SPEED™ PAYBACK

4 сезон

9 сезон

Бесстыжие 9 сезон

Все сериалы

все сериалы на PB.wtf

RePack

FAR CRY 5
  

Старость - не радость / Getting On (US) / Сезон: 1 / Серии: 1-3 (??) (Ховард Дойч / Howard Deutch, Бекки Мартин / Becky Martin, Мигель Артета / Miguel Arteta) [ 2013 , США , комедия , HDTVRip 720p ] MVO Amedia + Original + Rus sub pb.wtf

Старость - не радость через торрент pb.wtf

Размер: 2.93 GB | Добавлен: 6 лет 11 мес. назад | Торрент скачан:34 раза
Скачать  

27-12-2013 22:22 Старость - не радость Скачать торрент  

Старость – не радость / Getting On
«They know their business»
Год выпуска: 2013
Страна: США | HBO
Жанр: комедия
Продолжительность: 00:30:09
Перевод:
|Профессиональный (многоголосый, закадровый)
, ARС TV по заказу Амедиа|

Субтитры: русские,
Режиссер: Ховард Дойч / Howard Deutch, Бекки Мартин / Becky Martin, Мигель Артета / Miguel Arteta
В ролях: Лори Меткаф (Dr. Jenna James), Алекс Борштейн (Dawn Forchette), Найси Нэш (Didi Ortley), Мэл Родригез (Patsy De La Serda), Энн Морган Гилберт (Birdy Lamb), Марк Харелик (Dr. Paul Stickley), Брэндон Фоббс (Antoine Robertson), Линдси Крафт (Marguerite Macaw), Джоэль Джонстоун (Dr. Andrew Cesario), К Кэллан (Susan Dayward), Jalida Chung (Champey Houy), Kimberly Celemen (Kitty Doris)
Описание:
Комедийный сериал про будни дома престарелых. Думаете, в доме престарелых не до смеха? Ошибаетесь. Здесь есть всё – жизнь, слезы, любовь и куча поводов посмеяться. Например, бюрократы с их идиотскими многостраничными инструкциями на все случаи жизни – от клизмы до простой отрыжки. Или упорная борьба кое-кого из персонала с лишним весом. Не говоря уже о медицинских проблемах, которые нередко балансируют на грани между черным юмором и настоящим абсурдом.
Рейтинг

imdb.com: 7.10 (327)

Качество: HDTVRip 720p | Getting.On.US.S01.720p.HDTV.x264-KILLERS [PublicHD]
Формат: MKV
Видео кодек: AVC
Аудио кодек: AC3
Видео: AVC, 1280x720 (16:9), 3937 kbps, 23,976 fps, 0,178 bpp
Аудио первая серия
Аудио №1: русский / AC3 / 2.0 / 48 kHz / 192 kbps / 16 bit ||
Аудио №2: английский / AC3 / 5.1 / 48 kHz / 384 kbps / 16 bit
| Сэмпл (зеркало)
Аудио остальные серии
Аудио №1: русский / AC3 / 5.1 / 48 kHz / 384 kbps / 16 bit ||
Аудио №2: английский / AC3 / 5.1 / 48 kHz / 384 kbps / 16 bit
Оформление: Messa-fan
General
Unique ID : 200854927388655223532223678594274174555 (0x971B407D6819B91F9C68E29C2BC2265B)
Complete name : Getting On Season 1 MVO Amedia 720p | getting.on.us.s01e01.720p.hdtv.MVO.subs.mkv
Format : Matroska
Format version : Version 4 / Version 2
File size : 993 MiB
Duration : 30mn 9s
Overall bit rate : 4 605 Kbps
Encoded date : UTC 2013-12-27 22:08:12
Writing application : mkvmerge v6.5.0 ('Isn't she lovely') built on Oct 20 2013 12:50:05
Writing library : libebml v1.3.0 + libmatroska v1.4.1

Video
ID : 1
Format : AVC
Format/Info : Advanced Video Codec
Format profile : High@L4.1
Format settings, CABAC : Yes
Format settings, ReFrames : 5 frames
Codec ID : V_MPEG4/ISO/AVC
Duration : 30mn 9s
Bit rate : 3 937 Kbps
Width : 1 280 pixels
Height : 720 pixels
Display aspect ratio : 16:9
Frame rate : 23.976 fps
Color space : YUV
Chroma subsampling : 4:2:0
Bit depth : 8 bits
Scan type : Progressive
Bits/(Pixel*Frame) : 0.178
Stream size : 849 MiB (86%)
Writing library : x264 core 140 r2377 1ca7bb9
Encoding settings : cabac=1 / ref=5 / deblock=1:0:0 / analyse=0x3:0x113 / me=umh / subme=8 / psy=1 / psy_rd=1.00:0.00 / mixed_ref=1 / me_range=16 / chroma_me=1 / trellis=1 / 8x8dct=1 / cqm=0 / deadzone=21,11 / fast_pskip=1 / chroma_qp_offset=-2 / threads=18 / lookahead_threads=3 / sliced_threads=0 / nr=0 / decimate=1 / interlaced=0 / bluray_compat=0 / constrained_intra=0 / bframes=3 / b_pyramid=2 / b_adapt=2 / b_bias=0 / direct=3 / weightb=1 / open_gop=0 / weightp=2 / keyint=250 / keyint_min=23 / scenecut=40 / intra_refresh=0 / rc_lookahead=50 / rc=crf / mbtree=1 / crf=18.0 / qcomp=0.60 / qpmin=0 / qpmax=69 / qpstep=4 / ip_ratio=1.40 / aq=1:1.00
Language : English
Default : Yes
Forced : No
Matrix coefficients : BT.709-5, BT.1361, IEC 61966-2-4 709, SMPTE RP177

Audio #1
ID : 2
Format : AC-3
Format/Info : Audio Coding 3
Mode extension : CM (complete main)
Codec ID : A_AC3
Duration : 30mn 9s
Bit rate mode : Constant
Bit rate : 192 Kbps
Channel(s) : 2 channels
Channel positions : Front: L R
Sampling rate : 48.0 KHz
Bit depth : 16 bits
Compression mode : Lossy
Stream size : 41.4 MiB (4%)
Title : MVO Amedia
Language : Russian
Default : Yes
Forced : No

Audio #2
ID : 3
Format : AC-3
Format/Info : Audio Coding 3
Mode extension : CM (complete main)
Codec ID : A_AC3
Duration : 30mn 9s
Bit rate mode : Constant
Bit rate : 384 Kbps
Channel(s) : 6 channels
Channel positions : Front: L C R, Side: L R, LFE
Sampling rate : 48.0 KHz
Bit depth : 16 bits
Compression mode : Lossy
Stream size : 82.8 MiB (8%)
Language : English
Default : No
Forced : No

Text
ID : 4
Format : UTF-8
Codec ID : S_TEXT/UTF8
Codec ID/Info : UTF-8 Plain Text
Language : Russian
Default : No
Forced : No
Общее
Уникальный идентификатор : 249917383090064401131244536430471782560 (0xBC045650E0D926D79B64892071B5A0A0)
Полное имя : Getting On Season 1 MVO Amedia 720p | getting.on.us.s01e02.720p.hdtv.MVO.sub.mkv
Формат : Matroska
Версия формата : Version 4 / Version 2
Размер файла : 995 Мбайт
Продолжительность : 29 м.
Общий поток : 4763 Кбит/сек
Дата кодирования : UTC 2013-12-28 08:11:05
Программа кодирования : mkvmerge v6.5.0 ('Isn't she lovely') built on Oct 20 2013 12:50:05
Библиотека кодирования : libebml v1.3.0 + libmatroska v1.4.1

Видео
Идентификатор : 1
Формат : AVC
Формат/Информация : Advanced Video Codec
Профиль формата : High@L4.1
Параметр CABAC формата : Да
Параметр ReFrames формата : 5 кадров
Идентификатор кодека : V_MPEG4/ISO/AVC
Продолжительность : 29 м.
Битрейт : 3900 Кбит/сек
Ширина : 1280 пикселей
Высота : 720 пикселей
Соотношение сторон : 16:9
Режим частоты кадров : Постоянный
Частота кадров : 23,976 кадра/сек
Цветовое пространство : YUV
Субдискретизация насыщенности : 4:2:0
Битовая глубина : 8 бит
Тип развёртки : Прогрессивная
Бит/(Пиксели*Кадры) : 0.176
Размер потока : 815 Мбайт (82%)
Заголовок : Getting.On.US.S01E02
Библиотека кодирования : x264 core 140 r2377 1ca7bb9
Настройки программы : cabac=1 / ref=5 / deblock=1:0:0 / analyse=0x3:0x113 / me=umh / subme=8 / psy=1 / psy_rd=1.00:0.00 / mixed_ref=1 / me_range=16 / chroma_me=1 / trellis=1 / 8x8dct=1 / cqm=0 / deadzone=21,11 / fast_pskip=1 / chroma_qp_offset=-2 / threads=18 / lookahead_threads=3 / sliced_threads=0 / nr=0 / decimate=1 / interlaced=0 / bluray_compat=0 / constrained_intra=0 / bframes=3 / b_pyramid=2 / b_adapt=2 / b_bias=0 / direct=3 / weightb=1 / open_gop=0 / weightp=2 / keyint=250 / keyint_min=23 / scenecut=40 / intra_refresh=0 / rc_lookahead=50 / rc=crf / mbtree=1 / crf=18.0 / qcomp=0.60 / qpmin=0 / qpmax=69 / qpstep=4 / ip_ratio=1.40 / aq=1:1.00
Язык : English
Default : Да
Forced : Нет
Коэффициенты матрицы : BT.709

Аудио #1
Идентификатор : 2
Формат : AC-3
Формат/Информация : Audio Coding 3
Расширение режима : CM (complete main)
Параметр Endianness формата : Big
Идентификатор кодека : A_AC3
Продолжительность : 29 м.
Вид битрейта : Постоянный
Битрейт : 384 Кбит/сек
Каналы : 6 каналов
Расположение каналов : Front: L C R, Side: L R, LFE
Частота : 48,0 КГц
Битовая глубина : 16 бит
Метод сжатия : С потерями
Размер потока : 80,3 Мбайт (8%)
Заголовок : MVO Amedia
Язык : Russian
Default : Нет
Forced : Нет

Аудио #2
Идентификатор : 3
Формат : AC-3
Формат/Информация : Audio Coding 3
Расширение режима : CM (complete main)
Параметр Endianness формата : Big
Идентификатор кодека : A_AC3
Продолжительность : 29 м.
Вид битрейта : Постоянный
Битрейт : 384 Кбит/сек
Каналы : 6 каналов
Расположение каналов : Front: L C R, Side: L R, LFE
Частота : 48,0 КГц
Битовая глубина : 16 бит
Метод сжатия : С потерями
Размер потока : 80,3 Мбайт (8%)
Заголовок : Original
Язык : English
Default : Нет
Forced : Нет

Текст
Идентификатор : 4
Формат : UTF-8
Идентификатор кодека : S_TEXT/UTF8
Идентификатор кодека/Информация : UTF-8 Plain Text
Язык : Russian
Default : Нет
Forced : Нет


Внимание! Раздача ведётся путём добавления новых серий; при каждом добавлении создётся новый торрент. Чтобы начать докачку новой серии, пользователям необходимо сделать следующее:
(1) остановить скачивание,
(2) удалить старый торрент у себя из клиента (старые серии удалять не надо),
(3) скачать новый торрент и запустить его у себя в клиенте вместо старого, при этом указать клиенту путь в старую папку куда и должно происходить скачивание новых серий.
Ваш клиент при этом должен произвести хеширование (проверку) старой папки (если не производит сам - помогите ему сделать это), и будет докачивать только те серии которых у вас ещё нет. Старые серии при этом не удаляются, а продолжают раздаваться!
Eсли вы уже удалили старые серии, то предотвратить повторную закачку старых серий можно, отжав галочку в соответсвующих местах при запуске нового торрента. По возможности, желательно не удалять старые серии как можно дольше чтобы релизёр не столько продолжал раздавать старые серии, а смог сконцентрироваться на новых.
Добавлены 2 и 3 серии!
pb.wtf



Скачать Старость - не радость через торрент http://i5.imageban.ru/out/2013/12/28/d400eb944ff177eb65d91444c219bc71.jpg Скачать фильм Старость - не радость через торрент бесплантно в хорошем качестве Описание: Комедийный сериал про будни дома престарелых. Думаете, в доме престарелых не до смеха? Ошибаетесь. Здесь есть всё – жизнь, слезы, ... 10 10 2
Info! Золотая раздача, скачанное не засчитывается.
Торрент: Зарегистрирован [2013-12-28 13:16] · скачан: 34 раз
Статус: √ проверено
Размер: 2.93 GB
Как cкачать? Как скачать Старость - не радость через торрент | qTorrent



Последний раз редактировалось: Messa-fan (2013-12-28 13:24), всего редактировалось 9 раз(а)

28-11-2019 20:33  

Отключить всю рекламу на сайте

27-12-2013 22:30 Старость - не радость Скачать торрент  

Видео - сцен рип.
За запись звука благодарю BS666.
За предоставленный звук благодарность markinscor.pb.wtf





Последний раз редактировалось: Messa-fan (2013-12-28 13:17), всего редактировалось 1 раз

28-12-2013 13:17 Старость - не радость Скачать торрент  

Добавлены 2 и 3 серии!
pb.wtf



07-02-2014 15:31 Старость - не радость Скачать торрент  

А сколько всего серий?pb.wtf



07-02-2014 15:34 Старость - не радость Скачать торрент  

IndianaJ
шесть серий.
Постараюсь в течении недели добить сезон - звук у меня есть, осталось свести с видео.pb.wtf



    Дорогой пользователь! Огромная просьба, поблагодарите релизера, оцените раздачу и оставьте свои комментарий, если Вы скачали Старость - не радость через торрент бесплатно! Внесите свою лепту в развитие PiratBit!
    Комментировать посты могут только пользователи прошедшие не сложную регистрацию
    Показать сообщения:    

    Старость - не радость через торрент
    Скачать бесплатно Старость - не радость
    Старость - не радость скачать торрент
    Старость - не радость смотреть онлайн
    Cкачать фильм Старость - не радость бесплатно
    Старость - не радость скачать торрент в хорошем качестве
    Старость - не радость смотреть онлайн бесплатно в хорошем качестве


    Вы не можете начинать темы
    Вы не можете отвечать на сообщения
    Вы не можете редактировать свои сообщения
    Вы не можете удалять свои сообщения
    Вы не можете голосовать в опросах
    Вы не можете прикреплять файлы к сообщениям
    Вы можете скачивать файлы