Мега распродажа FORZA HORIZON 4 ULTIMATE+ВСЕ DLC+ОНЛАЙН всего за 499р. 349 руб. (супер цена). Внимание количество ограничено!!!

iTunes

1+1

iTunes

мы

iTunes

1

1 сезон

Чернобыль

1 сезон

Ральф против интернета

Лицензия

ПШазам

8 сезон

Игра престолов

Лицензия

30
pack

ВАЖНО

!!Акция!!

Alien_RageХит недели

RePack

Resident Evil 21

ИГРА 18+

pack

RePack

Metro:Exodus

!!Акция!!

Alien_Rage

RePack

fifa19

RePack

Assassins Creed: Odyssey

RePack

NEED FOR SPEED™ PAYBACK

3 сезон

9 сезон

Бесстыжие 9 сезон

Все сериалы

все сериалы на PB.wtf

RePack

FAR CRY 5
Ребята, катастрофически не хватает 2730р. для оплаты серверов за ИЮНЬ (всвязи с блокировками трафик упал в 3 раза), 1-2р., выручайте.
  

Иногда они возвращаются снова / Sometimes They Come Back... Again (Адам Гроссман / Adam Grossman) [ 1996 , США , ужасы , DVDRip , [AVO] (А.Гаврилов)] pb.wtf

Иногда они возвращаются снова через торрент pb.wtf

Размер: 1.36 GB | Добавлен: 5 лет 6 мес. назад | Торрент скачан:32 раза
Скачать  

28-12-2013 02:56 Иногда они возвращаются снова Скачать торрент  

Иногда они возвращаются снова / Sometimes They Come Back... AgainГод выпуска:1996
Страна: США
Жанр: ужасы

Продолжительность: 01:38:04
Перевод: Авторский (Гаврилов Андрей)

Субтитры: Нет
Режиссер: Адам Гроссман / Adam Grossman

В ролях: Майкл Гросс (Jon Porter), Алексис Аркетт (Tony Reno), Хилари Суэнк (Michelle Porter), Боджесси Кристофер (Vinnie Ritacco), Глен Боуден (Sean Patrick), Дженнифер Элиз Кокс (Jules Martin), Дженнифер Аспен (Maria Moore), Уильям Морган Шеппард (Father Archer Roberts), Майкл Малота (Young Jon), Гэбриел Делл мл. (Steve Pagel), Патрик Ренна (Young Alan), Лесли Данон (Lisa Porter)
Описание:
30 лет назад психиатр Йон Портер потерял сестру. Она стала жертвой тайного ритуала демонов во плоти, а он стал свидетелем этой жуткой казни. Спустя много лет при загадочных обстоятельствах погибает его мать.
Дьяволы вернулись? Да, и теперь опасность подстерегает всех жителей маленького городка. В одном из новых приятелей восемнадцатилетней дочери Мишель он узнает того, кто лишил жизни сестру. Девушка может стать следующей жертвой нечистой силы...

Рейтинг
kinopoisk.ru: 5.936 (516)
imdb.com: 3.50 (2180)
MPAA: R - Лицам до 17 лет обязательно присутствие взрослого
Качество: DVDRip
Формат: AVI
Видео кодек: DIVX
Аудио кодек: AC3
Видео: DivX 4, 720x528 (4:3), 1582 kbps, 25 fps, 0,167 bpp
Аудио №1: Русский AC3 / 2.0 / 48 kHz / 192 kbps /

Аудио №2: Английский MP3 / 2.0 / 48 kHz / 192 kbps /
© Оформление by ФёдорOFF
General
Complete name : D:раздачиInogda.oni.vozvraschayutsa.snova.1996.DivX.DVDRip.avi
Format : AVI
Format/Info : Audio Video Interleave
File size : 1.36 GiB
Duration : 1h 38mn
Overall bit rate : 1 981 Kbps
Movie name : Иногда они возвращаются снова / Sometimes They Come Back Again (1996)

Video
ID : 0
Format : MPEG-4 Visual
Format profile : Simple@L1
Format settings, BVOP : No
Format settings, QPel : No
Format settings, GMC : No warppoints
Format settings, Matrix : Default (H.263)
Codec ID : DIVX
Codec ID/Info : Project Mayo
Codec ID/Hint : DivX 4
Duration : 1h 38mn
Bit rate : 1 583 Kbps
Width : 720 pixels
Height : 528 pixels
Display aspect ratio : 4:3
Frame rate : 25.000 fps
Color space : YUV
Chroma subsampling : 4:2:0
Bit depth : 8 bits
Scan type : Progressive
Compression mode : Lossy
Bits/(Pixel*Frame) : 0.167
Stream size : 1.08 GiB (80%)

Audio #1
ID : 1
Format : AC-3
Format/Info : Audio Coding 3
Mode extension : CM (complete main)
Codec ID : 2000
Duration : 1h 38mn
Bit rate mode : Constant
Bit rate : 192 Kbps
Channel(s) : 2 channels
Channel positions : Front: L R
Sampling rate : 48.0 KHz
Bit depth : 16 bits
Compression mode : Lossy
Stream size : 135 MiB (10%)
Alignment : Split accross interleaves
Interleave, duration : 40 ms (1.00 video frame)
Interleave, preload duration : 500 ms
Language : Russian

Audio #2
ID : 2
Format : MPEG Audio
Format version : Version 1
Format profile : Layer 3
Mode : Joint stereo
Codec ID : 55
Codec ID/Hint : MP3
Duration : 1h 38mn
Bit rate mode : Constant
Bit rate : 192 Kbps
Channel(s) : 2 channels
Sampling rate : 48.0 KHz
Compression mode : Lossy
Stream size : 135 MiB (10%)
Alignment : Aligned on interleaves
Interleave, duration : 40 ms (1.00 video frame)
Interleave, preload duration : 504 ms
pb.wtf



Скачать Иногда они возвращаются снова через торрент http://i2.imageban.ru/out/2013/12/28/349b99dfc3f122d7e5e1e9d9afc1a67e.jpg Скачать фильм Иногда они возвращаются снова через торрент бесплантно в хорошем качестве Описание: 30 лет назад психиатр Йон Портер потерял сестру. Она стала жертвой тайного ритуала демонов во плоти, а он стал свидетелем этой ... 9.8 10 9
Info! Золотая раздача, скачанное не засчитывается.
Торрент: Зарегистрирован [2013-12-28 02:56] · скачан: 32 раз
Статус: √ проверено
Размер: 1.36 GB
Как cкачать? Как скачать Иногда они возвращаются снова через торрент | qTorrent


>> Регистрируемся здесь <<






Отзывы и комментарии о схеме читаем и пишем здесь: ---> Отзывы и комментарии о схеме

Новые благодарочки в телеграм довольных пользователей:
скриншот   скриншот   скриншот   скриншот   скриншот
    Дорогой пользователь! Огромная просьба, поблагодарите релизера, оцените раздачу и оставьте свои комментарий, если Вы скачали Иногда они возвращаются снова через торрент бесплатно! Внесите свою лепту в развитие PiratBit!
    Комментировать посты могут только пользователи прошедшие не сложную регистрацию
    Показать сообщения:    

    Иногда они возвращаются снова через торрент
    Скачать бесплатно Иногда они возвращаются снова
    Иногда они возвращаются снова скачать торрент
    Иногда они возвращаются снова смотреть онлайн
    Cкачать фильм Иногда они возвращаются снова бесплатно
    Иногда они возвращаются снова скачать торрент в хорошем качестве
    Иногда они возвращаются снова смотреть онлайн бесплатно в хорошем качестве


    Вы не можете начинать темы
    Вы не можете отвечать на сообщения
    Вы не можете редактировать свои сообщения
    Вы не можете удалять свои сообщения
    Вы не можете голосовать в опросах
    Вы не можете прикреплять файлы к сообщениям
    Вы можете скачивать файлы