Ссылка на приватное зеркало нашего сайта всего за 1$. Внимание количество ограничено!!!

2 сезон

iTunes

1 сезон

1

2 сезон

2 сезон

iTunes

1 сезон

RePack

30

Ultimate

ВАЖНО

ИГРА 18+

pack

RePack

MK11
pack

Забери бонус

RePack

jed

!!Акция!!

Alien_Rage

RePack

fifa19

RePack

Assassins Creed: Odyssey

RePack

NEED FOR SPEED™ PAYBACK

4 сезон

9 сезон

Бесстыжие 9 сезон

Все сериалы

все сериалы на PB.wtf

RePack

FAR CRY 5
  

Тайные связи / Тайные операции / 4 сезон: 1-16 серии из 16 / Covert Affairs (Стефен Т. Кэй, Феликс Энрикез Алькала, Аллен Крокер) [2013 г., боевик, триллер, драма, криминал, детектив, WEB-DLRip, Профессиональный многоголосый] FoxLife pb.wtf

Тайные связи через торрент pb.wtf

Размер: 7.8 GB | Добавлен: 6 лет 10 мес. назад | Торрент скачан:41 раз
Скачать  

28-12-2013 07:07 Тайные связи Скачать торрент  

Тайные связи / Covert Affairs

Год выпуска: 2013
Страна: США
Выпущено: Corman & Ord, Dutch Oven, Universal Cable Productions
Жанр: боевик, триллер, драма, криминал, детектив
Продолжительность: 16 х ~ 00:42:00
Перевод: Профессиональный многоголосый [Fox Life]

Режиссер: Стефен Т. Кэй Феликс Энрикез Алькала Аллен Крокер
Продюссер: Дэйв Бэртис, Хантер Беттс, Даг Лайман
Сценарий: Мэтт Кормэн, Крис Орд, Стивен Хутштейн
Премьера в мире: 13 июля 2010

IMDB 7.10 (15 864)


В ролях: Пайпер Перабо, Кристофер Горам, Кэри Матчетт, Питер Галлахер, Энн Дудек, Эммануэль Вожье, Сендхил Рамамурти, Эрик Лайвли, Эйон Бэйли,

Описание: На новой работе всегда нелегко – особенно, если тебе предстоит работать в ЦРУ. Энни Уолкер (Пайпер Перабо) бегло говорит на шести языках, объездила весь мир и является самой лучшей ученицей в школе агентов ЦРУ. Но это все-равно не дает никакого объяснения, почему за месяц до окончания обучения, ее внезапно приглашают в главный офис ЦРУ и предлагают работу агента. Также для нее остается неизвестным, что в ее прошлом есть что-то или кто-то, очень интересующий ее боссов. Эгги Андерсон (Кристофер Горхем), техэксперт, потерявший зрение на одном из заданий, становится для Энни проводником и верным помощником в огромном мире интриг, опасности и бюрократии.

Доп. информация: Канал USA, в частности его начальник Крис Маккамбера, уже сообщил о продлении на пятый сезон сериала "Тайные связи" (Covert Affairs). Предположительной датой выхода в эфир канала USA 5-го сезона обозначается уже лето 2014, пока без указания премьерной даты.
В новом сезоне вновь у очаровательного агента ЦРУ Энни Уокер будут новые задания с которыми она с лёгкостью справляется.

Качество: WEB-DLRip
Формат: AVI
Видео кодек: XviD
Аудио кодек: MP3
Видео: MPEG4, XviD, 720x400 (16:9), 23.976 fps, 1 383 Kbps (0.200 bit/pixel)
Аудио#1: MP3 , 48.0 KHz, 2 ch, 128 Kbps, CBR |Rus|
Аудио#2: MP3 , 48.0 KHz, 2 ch, 128 Kbps, CBR |Eng|
01. Vamos
02. Dig for Fire
03. Into the White
04. Rock a My Soul
05. Here Comes Your Man
06. Space
07. Crackity Jones
08. I've Been Waiting for You
09. Hang Wire
10. Levitate Me
11. Dead
12. Something Against You
13. No. 13 Baby
14. River Euphrates
15. There Goes My Gun
16. Trompe Le Monde
Формат : AVI
Формат/Информация : Audio Video Interleave
Размер файла : 499 Мбайт
Продолжительность : 42 м.
Общий поток : 1653 Кбит/сек
Программа кодирования : VirtualDubMod 1.5.10.2 (build 2540/release)
Библиотека кодирования : VirtualDubMod build 2540/release

Видео
Идентификатор : 0
Формат : MPEG-4 Visual
Профиль формата : Advanced Simple@L5
Параметр BVOP формата : 2
Параметр QPel формата : Нет
Параметр GMC формата : Без точки перехода
Параметр матрицы формата : Default (MPEG)
Идентификатор кодека : XVID
Идентификатор кодека/Подсказка : XviD
Продолжительность : 42 м.
Битрейт : 1383 Кбит/сек
Ширина : 720 пикселей
Высота : 400 пикселей
Соотношение сторон : 16:9
Частота кадров : 23,976 кадра/сек
Цветовое пространство : YUV
Субдискретизация насыщенности : 4:2:0
Битовая глубина : 8 бит
Тип развёртки : Прогрессивная
Метод сжатия : С потерями
Бит/(Пиксели*Кадры) : 0.200
Размер потока : 418 Мбайт (84%)
Библиотека кодирования : XviD 64

Аудио #1
Идентификатор : 1
Формат : MPEG Audio
Версия формата : Version 1
Профиль формата : Layer 3
Режим : Joint stereo
Расширение режима : MS Stereo
Идентификатор кодека : 55
Идентификатор кодека/Подсказка : MP3
Продолжительность : 42 м.
Вид битрейта : Постоянный
Битрейт : 128 Кбит/сек
Каналы : 2 канала
Частота : 48,0 КГц
Метод сжатия : С потерями
Размер потока : 38,7 Мбайт (8%)
Выравнивание : Соединение по промежуткам
Продолжительность промежутка : 42 мс. (1,00 видеокадр)
Время предзагрузки промежутка : 504 мс.

Аудио #2
Идентификатор : 2
Формат : MPEG Audio
Версия формата : Version 1
Профиль формата : Layer 3
Режим : Joint stereo
Расширение режима : MS Stereo
Идентификатор кодека : 55
Идентификатор кодека/Подсказка : MP3
Продолжительность : 42 м.
Вид битрейта : Постоянный
Битрейт : 128 Кбит/сек
Каналы : 2 канала
Частота : 48,0 КГц
Метод сжатия : С потерями
Размер потока : 38,7 Мбайт (8%)
Выравнивание : Соединение по промежуткам
Продолжительность промежутка : 42 мс. (1,00 видеокадр)
Время предзагрузки промежутка : 504 мс.
pb.wtf



Скачать Тайные связи через торрент http://i5.imageban.ru/out/2013/12/28/57cfecf44725937c7e745dc985d13240.png Скачать фильм Тайные связи через торрент бесплантно в хорошем качестве Описание: На новой работе всегда нелегко – особенно, если тебе предстоит работать в ЦРУ. Энни Уолкер (Пайпер Перабо) бегло говорит на шести ... 10 10 3
Info! Золотая раздача, скачанное не засчитывается.
Торрент: Зарегистрирован [2013-12-28 07:07] · скачан: 41 раз
Статус: √ проверено
Размер: 7.8 GB
Как cкачать? Как скачать Тайные связи через торрент | qTorrent

28-11-2019 20:33  

Отключить всю рекламу на сайте

    Дорогой пользователь! Огромная просьба, поблагодарите релизера, оцените раздачу и оставьте свои комментарий, если Вы скачали Тайные связи через торрент бесплатно! Внесите свою лепту в развитие PiratBit!
    Комментировать посты могут только пользователи прошедшие не сложную регистрацию
    Показать сообщения:    

    Тайные связи через торрент
    Скачать бесплатно Тайные связи
    Тайные связи скачать торрент
    Тайные связи смотреть онлайн
    Cкачать фильм Тайные связи бесплатно
    Тайные связи скачать торрент в хорошем качестве
    Тайные связи смотреть онлайн бесплатно в хорошем качестве


    Вы не можете начинать темы
    Вы не можете отвечать на сообщения
    Вы не можете редактировать свои сообщения
    Вы не можете удалять свои сообщения
    Вы не можете голосовать в опросах
    Вы не можете прикреплять файлы к сообщениям
    Вы можете скачивать файлы