Ссылка на приватное зеркало нашего сайта всего за 1$. Внимание количество ограничено!!!

2 сезон

iTunes

1 сезон

1

2 сезон

2 сезон

iTunes

1 сезон

RePack

30

Ultimate

ВАЖНО

ИГРА 18+

pack

RePack

MK11
pack

Забери бонус

RePack

jed

!!Акция!!

Alien_Rage

RePack

fifa19

RePack

Assassins Creed: Odyssey

RePack

NEED FOR SPEED™ PAYBACK

4 сезон

9 сезон

Бесстыжие 9 сезон

Все сериалы

все сериалы на PB.wtf

RePack

FAR CRY 5
  

Недоуспешные / 1 сезон: 1-12 серии из 12 / Underemployed (Джейс Александр, Майкл Ланж, Трой Миллер) [2012 г., драма, DVDRip, Профессиональный многоголосый] (MTV Россия) pb.wtf

Недоуспешные через торрент pb.wtf

Размер: 4.77 GB | Добавлен: 6 лет 11 мес. назад | Торрент скачан:22 раза
Скачать  

28-12-2013 10:45 Недоуспешные Скачать торрент  

Недоуспешные / Underemployed

Год выпуска: 2012
Страна: США
Выпущено: MTV Productions
Жанр: драма
Продолжительность: 12 х ~ 00:41:00
Перевод: Профессиональный многоголосый (MTV Россия)
Запись: jetsam, Beer kolesik Drinkers
Сведение: Beer kolesik Drinkers

Режиссер: Джейс Александр Майкл Ланж Трой Миллер
Продюссер: Уилин Драгован, Эмили Уайтселл, Крэйг Райт
Сценарий: Крэйг Райт, Brad Bauner, Джен Браден
Премьера в мире: 16 октября 2012

IMDB 6.40 (1265)


В ролях: Мишель Энг, Диего Бонета, Сара Хабель, Джаред Касниц, Инбар Лави, Чарли Вебер, Лесли Шрайфер, Мэттью В. Аллен, Дэниэл Дж. Джонсон, Джулианна Гуилл

Описание: Сериал описывает несладкую жизнь пяти выпускников, подружившихся еще в университете. Поначалу все они полны надежд и амбиций, но суровая реальность взрослой жизни раз за разом сбивает их с ног.

Качество: DVDRip
Формат: AVI
Видео кодек: XviD
Аудио кодек: MP3
Видео: MPEG4, XviD, 624x352 (16:9), 23.976 fps, 1 045 Kbps (0.199 bit/pixel)
Аудио#1: MP3 , 48.0 KHz, 2 ch, 192 Kbps, CBR |Rus|
Аудио#2: MP3 , 48.0 KHz, 2 ch, 128 Kbps, CBR |Eng|
01. Pilot
02. The Crib
03. The Roommate
04. The Days of Yore
05. The Trivial Pursuit
06. The Tasting
07. The Focus Group
08. The Gig
09. The Confession
10. The Kids
11. The Message
12. The Heart
Формат : AVI
Формат/Информация : Audio Video Interleave
Размер файла : 408 Мбайт
Продолжительность : 41 м.
Общий поток : 1379 Кбит/сек

Видео
Идентификатор : 0
Формат : MPEG-4 Visual
Профиль формата : Advanced Simple@L5
Параметр BVOP формата : 2
Параметр QPel формата : Нет
Параметр GMC формата : Без точки перехода
Параметр матрицы формата : Default (H.263)
Идентификатор кодека : XVID
Идентификатор кодека/Подсказка : XviD
Продолжительность : 41 м.
Битрейт : 1045 Кбит/сек
Ширина : 624 пикселя
Высота : 352 пикселя
Соотношение сторон : 16:9
Частота кадров : 23,976 кадра/сек
Цветовое пространство : YUV
Субдискретизация насыщенности : 4:2:0
Битовая глубина : 8 бит
Тип развёртки : Прогрессивная
Метод сжатия : С потерями
Бит/(Пиксели*Кадры) : 0.199
Размер потока : 309 Мбайт (76%)
Библиотека кодирования : XviD 64

Аудио #1
Идентификатор : 1
Формат : MPEG Audio
Версия формата : Version 1
Профиль формата : Layer 3
Режим : Joint stereo
Идентификатор кодека : 55
Идентификатор кодека/Подсказка : MP3
Продолжительность : 41 м.
Вид битрейта : Постоянный
Битрейт : 192 Кбит/сек
Каналы : 2 канала
Частота : 48,0 КГц
Метод сжатия : С потерями
Размер потока : 56,8 Мбайт (14%)
Выравнивание : Соединение по промежуткам
Продолжительность промежутка : 42 мс. (1,00 видеокадр)
Время предзагрузки промежутка : 504 мс.

Аудио #2
Идентификатор : 2
Формат : MPEG Audio
Версия формата : Version 1
Профиль формата : Layer 3
Идентификатор кодека : 55
Идентификатор кодека/Подсказка : MP3
Продолжительность : 41 м.
Вид битрейта : Постоянный
Битрейт : 128 Кбит/сек
Каналы : 2 канала
Частота : 48,0 КГц
Метод сжатия : С потерями
Размер потока : 37,9 Мбайт (9%)
Выравнивание : Соединение по промежуткам
Продолжительность промежутка : 42 мс. (1,00 видеокадр)
Время предзагрузки промежутка : 504 мс.
Библиотека кодирования : LAME3.98.4
pb.wtf



Скачать Недоуспешные через торрент http://i5.imageban.ru/out/2013/12/28/1cff5f907ece0525ba477c5eb95e6f22.png Скачать фильм Недоуспешные через торрент бесплантно в хорошем качестве Описание: Сериал описывает несладкую жизнь пяти выпускников, подружившихся еще в университете. Поначалу все они полны надежд и амбиций, но ... 7 10 3
× Info от релизера! Недоуспешные (1 сезон: 1-12 серии из 12)
Info! Золотая раздача, скачанное не засчитывается.
Торрент: Зарегистрирован [2013-12-28 10:45] · скачан: 22 раз
Статус: √ проверено
Размер: 4.77 GB
Как cкачать? Как скачать Недоуспешные через торрент | qTorrent

28-11-2019 20:33  

Отключить всю рекламу на сайте

28-12-2013 15:12 Недоуспешные Скачать торрент  

как сериал?pb.wtf



    Дорогой пользователь! Огромная просьба, поблагодарите релизера, оцените раздачу и оставьте свои комментарий, если Вы скачали Недоуспешные через торрент бесплатно! Внесите свою лепту в развитие PiratBit!
    Комментировать посты могут только пользователи прошедшие не сложную регистрацию
    Показать сообщения:    

    Недоуспешные через торрент
    Скачать бесплатно Недоуспешные
    Недоуспешные скачать торрент
    Недоуспешные смотреть онлайн
    Cкачать фильм Недоуспешные бесплатно
    Недоуспешные скачать торрент в хорошем качестве
    Недоуспешные смотреть онлайн бесплатно в хорошем качестве


    Вы не можете начинать темы
    Вы не можете отвечать на сообщения
    Вы не можете редактировать свои сообщения
    Вы не можете удалять свои сообщения
    Вы не можете голосовать в опросах
    Вы не можете прикреплять файлы к сообщениям
    Вы можете скачивать файлы