Ссылка на приватное зеркало нашего сайта всего за 1$. Внимание количество ограничено!!!

2 сезон

iTunes

1 сезон

1

iTunes

iTunes

iTunes

1 сезон

RePack

30

ИГРА 18+

pack

ВАЖНО

!!Акция!!

Alien_RageХит недели

RePack

MK11
pack

Забери бонус

RePack

jed

!!Акция!!

Alien_Rage

RePack

fifa19

RePack

Assassins Creed: Odyssey

RePack

NEED FOR SPEED™ PAYBACK

4 сезон

9 сезон

Бесстыжие 9 сезон

Все сериалы

все сериалы на PB.wtf

RePack

FAR CRY 5
  

Рандом (Павел Кхвалеев) [2013 г., драма, WEB-DLRip] pb.wtf

Рандом через торрент pb.wtf

Размер: 1.46 GB | Добавлен: 6 лет 9 мес. назад | Торрент скачан:128 раз
Скачать  

28-12-2013 17:19 Рандом Скачать торрент  

Рандом
Год выпуска: 2013
Страна: Россия
Жанр: драма,
Продолжительность: 01:28:27

Режиссер: Павел Кхвалеев



В ролях: Игорь Преображенский, Авис Вокс, Екатерина Сиротина, Блэкфилл Вайт, Павел Кхвалеев, Евгений Чрамов,

Описание: Девушка из другого измерения использует таинственную функцию «РАНДОМ» для материализации в нашем мире и выполнения определенной миссии. Ей неизвестна цель, ее ведет только интуиция и 100%-ное доверие Игре. На своем пути в город она встречает разных людей – тех, кому должна помочь. И тех, с кем лучше не встречаться... Беременная девушка, обладающая удивительным даром. Страховой агент, исследующий свою темную сторону. Женщина-полицейский, танцующая фламенко. Мужчина, пытающийся разыскать дочь, брошенную им 20 лет назад... Их роли тоже неслучайны - в этой сложной игре с названием «РАНДОМ».

Качество: WEB-DLRip
Формат: AVI
Видео кодек: XviD
Аудио кодек: AC3
Видео: 720x304 (2.37:1), 23.976 fps, XviD build 50 ~1973 kbps avg, 0.38 bit/pixel
Аудио: 48 kHz, AC3 Dolby Digital, 3/2 (L,C,R,l,r) + LFE ch, ~384 kbps

скриншот   скриншот   скриншот   скриншот   скриншот  

Общее
Полное имя : G:киноThe.Random.2013.WEB-DLRip.avi
Формат : AVI
Формат/Информация : Audio Video Interleave
Размер файла : 1,46 Гбайт
Продолжительность : 1 ч. 28 м.
Общий поток : 2367 Кбит/сек
Программа кодирования : VirtualDubMod 1.5.10.3 | www.virtualdub-fr.org || (build 2550/release)
Библиотека кодирования : VirtualDubMod build 2550/release

Видео
Идентификатор : 0
Формат : MPEG-4 Visual
Профиль формата : Advanced Simple@L5
Параметр BVOP формата : 2
Параметр QPel формата : Нет
Параметр GMC формата : Без точки перехода
Параметр матрицы формата : Default (H.263)
Идентификатор кодека : XVID
Идентификатор кодека/Подсказка : XviD
Продолжительность : 1 ч. 28 м.
Битрейт : 1974 Кбит/сек
Ширина : 720 пикс.
Высота : 304 пикс.
Соотношение сторон : 2,35:1
Частота кадров : 23,976 кадр/сек
Цветовое пространство : YUV
Подвыборка цветности : 4:2:0
Битовая глубина : 8 бит
Тип развёртки : Прогрессивная
Метод сжатия : С потерями
Бит/(Пиксели*Кадры) : 0.376
Размер потока : 1,22 Гбайт (83%)
Библиотека кодирования : XviD 1.2.1 (UTC 2008-12-04)

Аудио
Идентификатор : 1
Формат : AC-3
Формат/Информация : Audio Coding 3
Расширение режима : CM (complete main)
Идентификатор кодека : 2000
Продолжительность : 1 ч. 28 м.
Вид битрейта : Постоянный
Битрейт : 384 Кбит/сек
Канал(ы) : 6 канала(ов)
Расположение каналов : Front: L C R, Side: L R, LFE
Частота : 48,0 КГц
Битовая глубина : 16 бит
Метод сжатия : С потерями
Размер потока : 243 Мбайт (16%)
Выравнивание : Разделение по промежуткам
Продолжительность промежутка : 42 мс. (1,00 видеокадр)
Время предзагрузки промежутка : 500 ms

pb.wtf



Скачать Рандом через торрент http://pic.kartinco.top/images/6/6zjx8.jpg Скачать фильм Рандом через торрент бесплантно в хорошем качестве Описание: Девушка из другого измерения использует таинственную функцию «РАНДОМ» для материализации в нашем мире и выполнения определенной ... 9 10 5
Info! Золотая раздача, скачанное не засчитывается.
Торрент: Зарегистрирован [2013-12-28 17:25] · скачан: 128 раз
Статус: √ проверено
Размер: 1.46 GB
Как cкачать? Как скачать Рандом через торрент | qTorrent

% Раздел Тема Автор DL S | L
Наши новые фильмы 2013 [ 2.77 GB ] Рандом [ музыка WEB-DLRip 720p] Anonymous Скачать
1 | 0

28-11-2019 20:33  

Отключить всю рекламу на сайте

    Дорогой пользователь! Огромная просьба, поблагодарите релизера, оцените раздачу и оставьте свои комментарий, если Вы скачали Рандом через торрент бесплатно! Внесите свою лепту в развитие PiratBit!
    Комментировать посты могут только пользователи прошедшие не сложную регистрацию
    Показать сообщения:    

    Рандом через торрент
    Скачать бесплатно Рандом
    Рандом скачать торрент
    Рандом смотреть онлайн
    Cкачать фильм Рандом бесплатно
    Рандом скачать торрент в хорошем качестве
    Рандом смотреть онлайн бесплатно в хорошем качестве


    Вы не можете начинать темы
    Вы не можете отвечать на сообщения
    Вы не можете редактировать свои сообщения
    Вы не можете удалять свои сообщения
    Вы не можете голосовать в опросах
    Вы не можете прикреплять файлы к сообщениям
    Вы можете скачивать файлы