2 сезон

iTunes

1 сезон

1

iTunes

iTunes

iTunes

1 сезон

RePack

30

ИГРА 18+

pack

ВАЖНО

!!Акция!!

Alien_RageХит недели

RePack

MK11
pack

Забери бонус

RePack

jed

!!Акция!!

Alien_Rage

RePack

fifa19

RePack

Assassins Creed: Odyssey

RePack

NEED FOR SPEED™ PAYBACK

4 сезон

9 сезон

Бесстыжие 9 сезон

Все сериалы

все сериалы на PB.wtf

RePack

FAR CRY 5
  

Карательный отряд / Force of Execution (Киони Ваксман / Keoni Waxman) [ 2013 , США , боевик , HDRip ]VO pb.wtf

Карательный отряд через торрент pb.wtf

Размер: 1.37 GB | Добавлен: 6 лет 10 мес. назад | Торрент скачан:368 раз
Скачать  

29-12-2013 04:39 Карательный отряд Скачать торрент  

Карательный отряд / Force of Execution
«Не разбивать код»

Год выпуска: 2013
Страна: США
Жанр: боевик
Продолжительность: 01:38:54
Перевод: Любительский (одноголосый)
Субтитры: Нет

Режиссер: Киони Ваксман / Keoni Waxman
Сценарий: Ричард Битти / Richard Beattie, Майкл Блэк / Michael Black
Продюсер: Николя Картье / Nicolas Chartier, Филлип Б. Голдфайн / Phillip B. Goldfine, Стивен Сигал / Steven Seagal, Джим Бёрлсон / Jim Burleson, Дэннис Кроу / Dennis Crow
Оператор: Нэйтан Уилсон / Nathan Wilson
Композитор: Майкл Ричард Плауман / Michael Richard Plowman

Стивен Сигал (Thomas Douglas), Винг Реймз (Ice Man), Дэнни Трехо (Jimmy Peanuts), Хесус мл. (Strip Club Bouncer), Брен Фостер (Roman Hurst), Дженни Гэбриэлль (Karen), Дэвид Хаус (Dre), Сара Минник (Stripper), Эрик Стейниг (Eric /Alexander's Guard #2), Дж. Энтони Пена (Gangbanger #1), Дилан Кенин (Sasha), Жермен Вашингтон (Truck)

Бюджет: $10 000 000

Мировая премьера: 15 января 2014

Описание:Криминальная империя была родной для Александра Коатеса и разрушительной для его врагов, пока он номер один. Роман Хурст, испортил то, что было обычным делом. Александр спас своему протеже жизнь, но запачкал руки, что заставило Хурста уйти в отставку навсегда. Вскоре Александр понял, что ему нужна помощь Хурста в последний раз, когда появился Айсман, безжалостный убийца.

Рейтинг
MPAA: R - Лицам до 17 лет обязательно присутствие взрослого

Качество: HDRip
Формат: AVI
Видео кодек: XviD
Аудио кодек: AC3
Видео: 1521 Кбит/сек, 720*400 (16:9), в 23,976 кадра/сек, MPEG-4 Visual (XviD)
Аудио: 448 Кбит/сек, 48,0 КГц, 16 бит, 6 каналов, AC-3

Общее
Кол-во : 284
Кол-во потоков такого типа : 1
Тип потока : General
Тип потока : Общее
Идентификатор типа потока : 0
Inform : AVI: 1,37 Гбайт, 1 ч. 38 м.
Кол-во видеопотоков : 1
Кол-во аудиопотоков : 1
Video_Format_List : MPEG-4 Visual
Video_Format_WithHint_List : MPEG-4 Visual (XviD)
Видеокодеки : XviD
Audio_Format_List : AC-3
Audio_Format_WithHint_List : AC-3
Аудиокодеки : AC3
Полное имя : H:ТОРРЕНТЫКарательный отряд.avi
Имя папки : H:ТОРРЕНТЫ
Имя файла : Карательный отряд
Расширение : avi
Формат : AVI
Формат : AVI
Формат/Информация : Audio Video Interleave
Формат/Используется в : avi
Коммерческое название : AVI
Интернет-тип носителя : video/vnd.avi
Чередующаяся : Yes
Кодек : AVI
Кодек : AVI
Кодек/Информация : Audio Video Interleave
Кодек/Используется в : avi
Размер файла : 1467584512
Размер файла : 1,37 Гбайт
Размер файла : 1 Гбайт
Размер файла : 1,4 Гбайт
Размер файла : 1,37 Гбайт
Размер файла : 1,367 Гбайт
Продолжительность : 5934929
Продолжительность : 1 ч. 38 м.
Продолжительность : 1 ч. 38 м. 54 с. 929 мс.
Продолжительность : 1 ч. 38 м.
Продолжительность : 01:38:54.929
Общий поток : 1978234
Общий поток : 1978 Кбит/сек
Размер потока : 6958041
Размер потока : 6,64 Мбайт (0%)
Размер потока : 7 Мбайт
Размер потока : 6,6 Мбайт
Размер потока : 6,64 Мбайт
Размер потока : 6,636 Мбайт
Размер потока : 6,64 Мбайт (0%)
Пропорции потока : 0.00474
Дата файла : UTC 2013-12-29 04:14:54.464
Дата файла (местная) : 2013-12-29 11:14:54.464
Дата изменения файла : UTC 2013-12-29 04:18:49.275
Дата изменения файла (местная) : 2013-12-29 11:18:49.275
Программа кодирования : VirtualDubMod 1.5.10.2 (build 2540/release)
Библиотека кодирования : VirtualDubMod build 2540/release
Библиотека кодирования : VirtualDubMod build 2540/release

Видео
Кол-во : 271
Кол-во потоков такого типа : 1
Тип потока : Video
Тип потока : Видео
Идентификатор типа потока : 0
StreamOrder : 0
Inform : 1521 Кбит/сек, 720*400 (16:9), в 23,976 кадра/сек, MPEG-4 Visual (XviD) (Advanced Simple@L5) (BVOP2 / Custom Matrix)
Идентификатор : 0
Идентификатор : 0
Формат : MPEG-4 Visual
Коммерческое название : MPEG-4 Visual
Профиль формата : Advanced Simple@L5
Настройки формата : BVOP2 / Custom Matrix
Параметр BVOP формата : 2
Параметр BVOP формата : 2
Параметр QPel формата : No
Параметр QPel формата : Нет
Параметр GMC формата : 0
Параметр GMC формата : Без точки перехода
Параметр матрицы формата : Custom
Параметр матрицы формата : Выборочная
Format_Settings_Matrix_Data : 080A0A0A0A0A0A0A0A0A0B0A0B0A0B0B0B0B0B0B0B0D0C0D0D0D0C0D0F0E0E0F0F0E0E0F10101113111010121316161312171A1C1A171D22221D292C29373748 / 0F0F0F0F0F0F0F0F0F0F100F100F101110111110111312131313121316141416161414161717191C1917171B1D20201D1B21262926212B32322B3C423C51516A
Интернет-тип носителя : video/MP4V-ES
Идентификатор кодека : XVID
Идентификатор кодека/Подсказка : XviD
Идентификатор кодека/Ссылка : http://mediaarea.net/XVID
Кодек : XVID
Кодек : XviD
Кодек/Семейство : MPEG-4V
Кодек/Информация : XviD project
Кодек/Ссылка : http://www.xvid.org/Downloads.15.0.html
Кодек/CC : XVID
Профиль кодека : Advanced Simple@L5
Настройки кодека : BVOP / Custom Matrix
Параметр пакетного потока данных кодека : No
Параметр BVOP кодека : Yes
Параметр QPel кодека : No
Параметр GMC кодека : 0
Параметр GMC кодека : Без точки перехода
Параметр матрицы кодека : Custom
Продолжительность : 5934929
Продолжительность : 1 ч. 38 м.
Продолжительность : 1 ч. 38 м. 54 с. 929 мс.
Продолжительность : 1 ч. 38 м.
Продолжительность : 01:38:54.929
Битрейт : 1520853
Битрейт : 1521 Кбит/сек
Ширина : 720
Ширина : 720 пикселей
Высота : 400
Высота : 400 пикселей
Пропорции пикселя : 1.000
Соотношение сторон : 1.800
Соотношение сторон : 16:9
Частота кадров : 23.976
Частота кадров : 23,976 кадра/сек
Счётчик кадров : 142296
Разрешение : 8
Разрешение : 8 бит
Колориметрия : 4:2:0
Цветовое пространство : YUV
Субдискретизация насыщенности : 4:2:0
Битовая глубина : 8
Битовая глубина : 8 бит
Тип развёртки : Progressive
Тип развёртки : Прогрессивная
Переплетение : PPF
Переплетение : Прогрессивная
Метод сжатия : Lossy
Метод сжатия : С потерями
Бит/(Пиксели*Кадры) : 0.220
Задержка : 0
Задержка : 00:00:00.000
Размер потока : 1128270447
Размер потока : 1,05 Гбайт (77%)
Размер потока : 1 Гбайт
Размер потока : 1,1 Гбайт
Размер потока : 1,05 Гбайт
Размер потока : 1,051 Гбайт
Размер потока : 1,05 Гбайт (77%)
Пропорции потока : 0.76879
Библиотека кодирования : XviD0050
Библиотека кодирования : XviD 1.2.1 (UTC 2008-12-04)
Библиотека кодирования/Имя : XviD
Библиотека кодирования/Version : 1.2.1
Библиотека кодирования/Дата : UTC 2008-12-04

Аудио
Кол-во : 250
Кол-во потоков такого типа : 1
Тип потока : Audio
Тип потока : Аудио
Идентификатор типа потока : 0
StreamOrder : 1
Inform : 448 Кбит/сек, 48,0 КГц, 16 бит, 6 каналов, AC-3
Идентификатор : 1
Идентификатор : 1
Формат : AC-3
Формат/Информация : Audio Coding 3
Коммерческое название : AC-3
Расширение режима : CM (complete main)
Параметр Endianness формата : Big
Идентификатор кодека : 2000
Кодек : AC3
Кодек : AC3
Кодек/Семейство : AC3
Кодек/Информация : Dolby AC3
Кодек/CC : 2000
Продолжительность : 5934929
Продолжительность : 1 ч. 38 м.
Продолжительность : 1 ч. 38 м. 54 с. 929 мс.
Продолжительность : 1 ч. 38 м.
Продолжительность : 01:38:54.929
Вид битрейта : CBR
Вид битрейта : Постоянный
Битрейт : 448000
Битрейт : 448 Кбит/сек
Каналы : 6
Каналы : 6 каналов
Расположение каналов : Front: L C R, Side: L R, LFE
Расположение каналов : 3/2/0.1
Частота : 48000
Частота : 48,0 КГц
Количество образцов : 284876592
Разрешение : 16
Разрешение : 16 бит
Битовая глубина : 16
Битовая глубина : 16 бит
Метод сжатия : Lossy
Метод сжатия : С потерями
Задержка : 0
Задержка : 00:00:00.000
Задержка в оригинале : Stream
Задержка в оригинале : 'Сырой' поток
Задержка видео : 0
Задержка видео : 0
Размер потока : 332356024
Размер потока : 317 Мбайт (23%)
Размер потока : 317 Мбайт
Размер потока : 317 Мбайт
Размер потока : 317 Мбайт
Размер потока : 317,0 Мбайт
Размер потока : 317 Мбайт (23%)
Пропорции потока : 0.22646
Выравнивание : Split
Выравнивание : Разделение по промежуткам
Продолжительность промежутка : 1.00
Продолжительность промежутка : 42
Продолжительность промежутка : 42 мс. (1,00 видеокадр)
Время предзагрузки промежутка : 500
Время предзагрузки промежутка : 500 мс.
bsid : 8
dialnorm : -27
dialnorm/String : -27 dB
compr : -0.28
compr/String : -0.28 dB
acmod : 7
lfeon : 1
dialnorm_Average : -27
dialnorm_Average/String : -27 dB
dialnorm_Minimum : -27
dialnorm_Minimum/String : -27 dB
dialnorm_Maximum : -27
dialnorm_Maximum/String : -27 dB
dialnorm_Count : 405
compr_Average : -0.08
compr_Average/String : -0.08 dB
compr_Minimum : -8.52
compr_Minimum/String : -8.52 dB
compr_Maximum : 5.46
compr_Maximum/String : 5.46 dB
compr_Count : 405
dynrng_Average : 0.26
dynrng_Average/String : 0.26 dB
dynrng_Minimum : -3.66
dynrng_Minimum/String : -3.66 dB
dynrng_Maximum : 3.70
dynrng_Maximum/String : 3.70 dB
dynrng_Count : 405


скриншот  скриншот  скриншот  скриншот  скриншот  скриншот  скриншот  



pb.wtf



Скачать Карательный отряд через торрент http://trueimages.ru/img/f1/87/b52afb25.jpg Скачать фильм Карательный отряд через торрент бесплантно в хорошем качестве Описание:Криминальная империя была родной для Александра Коатеса и разрушительной для его врагов, пока он номер один. Роман Хурст, испортил ... 9.7 10 31
Info! Золотая раздача, скачанное не засчитывается.
Торрент: Зарегистрирован [2013-12-29 04:39] · скачан: 368 раз
Статус: T временная
Размер: 1.37 GB
Как cкачать? Как скачать Карательный отряд через торрент | qTorrent

% Раздел Тема Автор DL S | L
Фильмы 2013 [DVDrip, WEB-DLRip, HDrip] [ 1.76 GB ] Карательный отряд / Force of Execution [2013 / Voltage Pictures BDRip-AVC] MVO potroks Скачать
1 | 0
Фильмы (Blu-ray, BD-Remux, HDDVD) [ 20.02 GB ] Карательный отряд / Force of Execution [ 2013 BDRemux ] MVO РенТВ +VO Ворон Скачать
1 | 0
Фильмы [HD 720p, 1080p] (Хороший звук DUB, MVO) [ 7.23 GB ] Карательный отряд / Force of Execution [ 2013 BDRip 1080p ] MVO РенТВ Ворон Скачать
1 | 0
Фильмы 2013 [DVDrip, WEB-DLRip, HDrip] [ 1.45 GB ] Карательный отряд / Force of Execution [ 2013 HDRip ] MVO Ворон Скачать
1 | 0
T Фильмы 2013 (Звук TS, Cam, VO, DVO) [ 1.76 GB ] Карательный отряд / Force of Execution [2013 BDRip-AVC] VO + Original + Sub potroks Скачать
1 | 0

28-11-2019 20:33  

Отключить всю рекламу на сайте

    Дорогой пользователь! Огромная просьба, поблагодарите релизера, оцените раздачу и оставьте свои комментарий, если Вы скачали Карательный отряд через торрент бесплатно! Внесите свою лепту в развитие PiratBit!
    Комментировать посты могут только пользователи прошедшие не сложную регистрацию
    Показать сообщения:    

    Карательный отряд через торрент
    Скачать бесплатно Карательный отряд
    Карательный отряд скачать торрент
    Карательный отряд смотреть онлайн
    Cкачать фильм Карательный отряд бесплатно
    Карательный отряд скачать торрент в хорошем качестве
    Карательный отряд смотреть онлайн бесплатно в хорошем качестве


    Вы не можете начинать темы
    Вы не можете отвечать на сообщения
    Вы не можете редактировать свои сообщения
    Вы не можете удалять свои сообщения
    Вы не можете голосовать в опросах
    Вы не можете прикреплять файлы к сообщениям
    Вы можете скачивать файлы