2 сезон

iTunes

1 сезон

1

iTunes

iTunes

iTunes

1 сезон

RePack

30

ИГРА 18+

pack

ВАЖНО

!!Акция!!

Alien_RageХит недели

RePack

MK11
pack

Забери бонус

RePack

jed

!!Акция!!

Alien_Rage

RePack

fifa19

RePack

Assassins Creed: Odyssey

RePack

NEED FOR SPEED™ PAYBACK

4 сезон

9 сезон

Бесстыжие 9 сезон

Все сериалы

все сериалы на PB.wtf

RePack

FAR CRY 5
  

Защитница (Александр Тименко) [2012 г., детектив, DVDRip] pb.wtf

Защитница через торрент pb.wtf

Размер: 4.67 GB | Добавлен: 6 лет 10 мес. назад | Торрент скачан:222 раза
Скачать  

29-12-2013 06:17 Защитница Скачать торрент  

Защитница

Год выпуска: 2012
Страна: Россия
Выпущено: АРТ-БАЗАР
Жанр: детектив
Продолжительность: 8 x ~ 00:44:00
Язык: Русский

Режиссер: Александр Тименко
Продюссер: Татьяна Воронович, Давид Кеосаян
Сценарий: Оксана Южанина

В ролях: Екатерина Варченко, Екатерина Климова, Сергей Горобченко, Ада Роговцева, Дмитрий Орлов, Екатерина Вуличенко, Василий Мищенко, Наталья Хорохорина, Александр Логинов, Владимир Горянский, Алексей Смолка, Максим Чумак, Нина Нижерадзе, Виктор Щур, Заза Чантурия,

Описание: Мария Комиссарова — сержант поселковой полиции. Она мастер спорта по восточным единоборствам и высококлассный профессионал своего дела. Кроме того, Мария — единственная женщина поселковой полиции, красавица и гордость отделения. Острый ум, природная смекалка и навыки следопыта, доставшиеся ей от отца-егеря, позволяют девушке прекрасно ориентироваться в местных лесах и находить преступников по следам, незаметным для обычного человека. Эти качества делают Машу незаменимым человеком в отделе.

Качество: DVDRip
Формат: AVI
Видео кодек: XviD
Аудио кодек: AC3
Видео: MPEG4, XviD, 720x400 (16:9), 25.000 fps, 1 691 Kbps (0.235 bit/pixel)
Аудио: AC-3, 48.0 KHz, 2 ch, 192 Kbps, CBR
Формат : AVI
Формат/Информация : Audio Video Interleave
Размер файла : 598 Мбайт
Продолжительность : 44 м.
Общий поток : 1893 Кбит/сек
Программа кодирования : VirtualDubMod 1.5.10.3 | www.virtualdub-fr.org || (build 2550/release)
Библиотека кодирования : VirtualDubMod build 2550/release

Видео
Идентификатор : 0
Формат : MPEG-4 Visual
Профиль формата : Advanced Simple@L5
Параметр BVOP формата : 2
Параметр QPel формата : Нет
Параметр GMC формата : Без точки перехода
Параметр матрицы формата : Default (MPEG)
Идентификатор кодека : XVID
Идентификатор кодека/Подсказка : XviD
Продолжительность : 44 м.
Битрейт : 1691 Кбит/сек
Ширина : 720 пикселей
Высота : 400 пикселей
Соотношение сторон : 16:9
Частота кадров : 25,000 кадров/сек
Цветовое пространство : YUV
Субдискретизация насыщенности : 4:2:0
Битовая глубина : 8 бит
Тип развёртки : Прогрессивная
Метод сжатия : С потерями
Бит/(Пиксели*Кадры) : 0.235
Размер потока : 534 Мбайт (89%)
Библиотека кодирования : XviD 73

Аудио
Идентификатор : 1
Формат : AC-3
Формат/Информация : Audio Coding 3
Расширение режима : CM (complete main)
Параметр Endianness формата : Big
Идентификатор кодека : 2000
Продолжительность : 44 м.
Вид битрейта : Постоянный
Битрейт : 192 Кбит/сек
Каналы : 2 канала
Расположение каналов : Front: L R
Частота : 48,0 КГц
Битовая глубина : 16 бит
Метод сжатия : С потерями
Размер потока : 60,7 Мбайт (10%)
Выравнивание : Разделение по промежуткам
Продолжительность промежутка : 40 мс. (1,00 видеокадр)
Время предзагрузки промежутка : 500 мс.
pb.wtf



Скачать Защитница через торрент http://i2.imageban.ru/out/2013/12/29/9863b02065fe2dd17e001e11858d7607.png Скачать фильм Защитница через торрент бесплантно в хорошем качестве Описание: Мария Комиссарова — сержант поселковой полиции. Она мастер спорта по восточным единоборствам и высококлассный профессионал своего ... 9.9 10 7
× Info от релизера! Защитница
Info! Золотая раздача, скачанное не засчитывается.
Торрент: Зарегистрирован [2013-12-29 06:17] · скачан: 222 раз
Статус: √ проверено
Размер: 4.67 GB
Как cкачать? Как скачать Защитница через торрент | qTorrent

% Раздел Тема Автор DL S | L
Зарубежные сериалы [ 5.08 GB ] Защитница / The Protector [2011 HDTVRip] lyokaa Скачать
1 | 0
Наши сериалы [ 3.87 GB ] Защитница / Серии: 8 из 8 [2012 SATRip] -=Cherry=- Скачать
1 | 0
Наши сериалы [ 3.23 GB ] Защитница / Сезон: 1 Серии: 1-6 из 6 [2012 SATRip] wekotila Скачать
1 | 0
Зарубежные сериалы [ 13.31 GB ] Защитница / The Protector [2011 HDTVRip 720p] Rastafari Скачать
1 | 0

28-11-2019 20:33  

Отключить всю рекламу на сайте

    Дорогой пользователь! Огромная просьба, поблагодарите релизера, оцените раздачу и оставьте свои комментарий, если Вы скачали Защитница через торрент бесплатно! Внесите свою лепту в развитие PiratBit!
    Комментировать посты могут только пользователи прошедшие не сложную регистрацию
    Показать сообщения:    

    Защитница через торрент
    Скачать бесплатно Защитница
    Защитница скачать торрент
    Защитница смотреть онлайн
    Cкачать фильм Защитница бесплатно
    Защитница скачать торрент в хорошем качестве
    Защитница смотреть онлайн бесплатно в хорошем качестве


    Вы не можете начинать темы
    Вы не можете отвечать на сообщения
    Вы не можете редактировать свои сообщения
    Вы не можете удалять свои сообщения
    Вы не можете голосовать в опросах
    Вы не можете прикреплять файлы к сообщениям
    Вы можете скачивать файлы