новый адрес пиратбит piratbit
Мега распродажа FORZA HORIZON 4 ULTIMATE+ВСЕ DLC+ОНЛАЙН всего за 499р. 349 руб. (супер цена). Внимание количество ограничено!!!

iTunes

1+1

iTunes

мы

iTunes

1

iTunes

Чернобыль

iTunes

Ральф против интернета

Лицензия

ПШазам

Лицензия

Игра престолов

Лицензия

30
pack

ВАЖНО

!!Акция!!

Alien_RageХит недели

RePack

Resident Evil 21

ИГРА 18+

pack

RePack

Metro:Exodus

!!Акция!!

Alien_Rage

RePack

fifa19

RePack

Assassins Creed: Odyssey

RePack

NEED FOR SPEED™ PAYBACK

3 сезон

9 сезон

Бесстыжие 9 сезон

Все сериалы

все сериалы на PB.wtf

RePack

FAR CRY 5
Ребята, катастрофически не хватает 1900р. для оплаты серверов за Октябрь (всвязи с блокировками трафик упал в 3 раза), 1-2р., выручайте.
  

Кабаре / Cabaret (1972) (Боб Фосс) [США,1972, драма, мелодрама, мюзикл, HDRip] 2xMVO, 2xAVO (Михалёв, Гаврилов), Original (English)] pb.wtf

Кабаре через торрент pb.wtf

Размер: 2.57 GB | Добавлен: 5 лет 10 мес. назад | Торрент скачан:23 раза
Скачать  

29-12-2013 11:23 Кабаре Скачать торрент  

«Кабаре / Cabaret (Боб Фосс)»
Название: Кабаре
Оригинальное название: Cabaret
Год выхода: 1972
Страна: США, ABC Pictures Corporation, Allied Artists Pictures Corporation, Bavaria Film
Жанр: Мюзикл, драма, мелодрама
Продолжительность: 02:03:42

Перевод:
Перевод 1: Профессиональный (многоголосый, закадровый) Екатеринбург Арт
Перевод 2: Профессиональный (многоголосый, закадровый)
Перевод 3: Авторский (одноголосый, закадровый) (Алексей Михалёв)
Перевод 4: Авторский (одноголосый, закадровый) (Андрей Гаврилов)
Субтитры: английские (полные, внешним файлом)

Режиссер: Боб Фосс
Продюсер: Сай Фойер, Харольд Небензал, Мартин Бом
Сценарий: Джей Прессон Аллен, Джо Мастерофф, Джон Вэн Друтен, ...

В ролях: Лайза Миннелли, Джоэл Грэй, Майкл Йорк, Хельмут Грим, Фриц Веппер, Мариса Беренсон, Элизабет Ньюмен-Виртель, Хелен Вита, Сигрит фон Рихтхофен, Герд Весперманн, Ральф Уолтер, Георг Харманн, Рики Рене, Эстронго Нахама, Кэтрин Доби, Инге Джегер, Анжелика Кох, Хелен Велковорска, Гитта Шмидт, Луиз Куик

Описание: Один из самых гениальных мюзиклов в истории мирового кинематографа. Действие фильма происходит в Берлине тридцатых годов прошлого века. В условиях фашистской Германии пытаются строить свои хрупкие взаимоотношения американская певица и молодой студент, дающий частные уроки богатой еврейке. Посмотрев один раз эту удивительную, поистине гениальную картину, невозможно забыть ни вульгарных певичек берлинского кабаре, ни церемониймейстера-конферансье, ни толсторожих, заливших брюхо пивом бюргеров, ни даже зеленый маникюр ноготков Салли, которую играет великая Лайза Миннелли. И ненавязчивое, на заднем плане, но от этого не менее жуткое, наползание "коричневой чумы" на Германию. Потрясающие музыкальные номера, ставшие классикой эстрадной музыки. Великолепнейший конферансье в исполнении Джоэла Грэя.
Фильм, поставленный по мотивам одноименного бродвейского мюзикла, основанного на пьесе Джона Ван Друтена и сборнику рассказов Кристофера Ишервуда "Прощай, Берлин", заслуженно получил восемь "Оскаров". Танцы и музыкальные номера поставлены Бобом Фоссом.



Кодек: XviD
Качество: HDRip
Формат: AVI
Видео: 720x400, 1732 Кбит/с, 23,976 кадр/сек ,0.251 Бит/пиксел
Звук:
Аудио#1: Russian: (AC3, 2 ch, 192 Кбит/c ,48,0 КГц) - закадровый (многоголосый) Екатеринбург Арт;
Аудио#2: Russian: (AC3, 2 ch, 192 Кбит/c ,48,0 КГц) - закадровый (многоголосый);
Аудио#3: Russian: (AC3, 2 ch, 192 Кбит/c ,48,0 КГц) - закадровый (одноголосый, Алексей Михалёв);
Аудио#4: Russian: (AC3, 2 ch, 192 Кбит/c ,48,0 КГц) - закадровый (одноголосый, Андрей Гаврилов);
Аудио#5: English: (AC3, 6 ch, 448 Кбит/c ,48,0 КГц) - отдельно.

Оскар, 1973 год
Победитель (8):
Лучшая женская роль (Лайза Миннелли)
Лучшая мужская роль второго плана (Джоэл Грей)
Лучший режиссер (Боб Фосси)
Лучшая работа оператора
Лучшие декорации
Лучший звук
Лучший монтаж
Лучшая музыкальная адаптация
Номинации (2):
Лучший фильм
Лучший адаптированный сценарий


Золотой глобус, 1973 год
Победитель (3):
Лучшая женская роль (комедия или мюзикл) (Лайза Миннелли)
Лучший фильм (комедия или мюзикл)
Лучшая мужская роль второго плана (Джоэл Грей)
Номинации (6):
Лучшая женская роль второго плана (Мариза Беренсон)
Лучший режиссер (Боб Фосси)
Лучший сценарий
Лучшая песня — «Money, Money»
Лучшая песня — «Mein Herr»
Самый многообещающий новичок среди женщин (Мариза Беренсон)


Британская академия, 1973 год
Победитель (7):
Лучший фильм
Лучшая женская роль (Лайза Миннелли)
Лучший режиссер (Боб Фосси)
Лучшая работа оператора
Лучшая работа художника
Лучший саундтрек
Лучший новичок (Джоэл Грей)
Номинации (4):
Лучшая женская роль второго плана (Мариза Беренсон)
Лучший сценарий
Лучшие костюмы
Лучший монтаж
скриншот   скриншот   скриншот   скриншот   скриншот   скриншот   скриншот   скриншот   скриншот   скриншот   скриншот   скриншот   скриншот   скриншот   скриншот  
Общее
Полное имя : D:tempKabare.1972.XviD.HDRip.NovaLanKabare.1972.XviD.HDRip.NovaLan.avi
Формат : AVI
Формат/Информация : Audio Video Interleave
Профиль формата : OpenDML
Размер файла : 2,18 Гбайт
Продолжительность : 2 ч. 3 м.
Общий поток : 2528 Кбит/сек
Название фильма : Kabare.1972.XviD.HDRip.NovaLan.avi
Режиссёр : NovaLan_alek7120
Программа кодирования : VirtualDubMod 1.5.10.3 | www.virtualdub-fr.org || (build 2550/release)

Видео
Идентификатор : 0
Формат : MPEG-4 Visual
Профиль формата : Advanced Simple@L5
Параметр BVOP формата : 2
Параметр QPel формата : Нет
Параметр GMC формата : Без точки перехода
Параметр матрицы формата : Default (MPEG)
Режим смешивания : Сжатый битовый поток
Идентификатор кодека : XVID
Идентификатор кодека/Подсказка : XviD
Продолжительность : 2 ч. 3 м.
Битрейт : 1732 Кбит/сек
Ширина : 720 пикселей
Высота : 400 пикселей
Соотношение сторон : 16:9
Частота кадров : 23,976 кадра/сек
Цветовое пространство : YUV
Субдискретизация насыщенности : 4:2:0
Битовая глубина : 8 бит
Тип развёртки : Прогрессивная
Метод сжатия : С потерями
Бит/(Пиксели*Кадры) : 0.251
Размер потока : 1,50 Гбайт (68%)
Библиотека кодирования : XviD 1.2.1 (UTC 2008-12-04)

Аудио #1
Идентификатор : 1
Формат : AC-3
Формат/Информация : Audio Coding 3
Расширение режима : CM (complete main)
Параметр Endianness формата : Big
Идентификатор кодека : 2000
Продолжительность : 2 ч. 3 м.
Вид битрейта : Постоянный
Битрейт : 192 Кбит/сек
Каналы : 2 канала
Расположение каналов : Front: L R
Частота : 48,0 КГц
Битовая глубина : 16 бит
Метод сжатия : С потерями
Размер потока : 170 Мбайт (8%)
Выравнивание : Разделение по промежуткам
Продолжительность промежутка : 42 мс. (1,00 видеокадр)
Время предзагрузки промежутка : 500 мс.

Аудио #2
Идентификатор : 2
Формат : AC-3
Формат/Информация : Audio Coding 3
Расширение режима : CM (complete main)
Параметр Endianness формата : Big
Идентификатор кодека : 2000
Продолжительность : 2 ч. 3 м.
Вид битрейта : Постоянный
Битрейт : 192 Кбит/сек
Каналы : 2 канала
Расположение каналов : Front: L R
Частота : 48,0 КГц
Битовая глубина : 16 бит
Метод сжатия : С потерями
Размер потока : 170 Мбайт (8%)
Выравнивание : Разделение по промежуткам
Продолжительность промежутка : 42 мс. (1,00 видеокадр)
Время предзагрузки промежутка : 500 мс.

Аудио #3
Идентификатор : 3
Формат : AC-3
Формат/Информация : Audio Coding 3
Расширение режима : CM (complete main)
Параметр Endianness формата : Big
Идентификатор кодека : 2000
Продолжительность : 2 ч. 3 м.
Вид битрейта : Постоянный
Битрейт : 192 Кбит/сек
Каналы : 2 канала
Расположение каналов : Front: L R
Частота : 48,0 КГц
Битовая глубина : 16 бит
Метод сжатия : С потерями
Размер потока : 170 Мбайт (8%)
Выравнивание : Разделение по промежуткам
Продолжительность промежутка : 42 мс. (1,00 видеокадр)
Время предзагрузки промежутка : 500 мс.

Аудио #4
Идентификатор : 4
Формат : AC-3
Формат/Информация : Audio Coding 3
Расширение режима : CM (complete main)
Параметр Endianness формата : Big
Идентификатор кодека : 2000
Продолжительность : 2 ч. 3 м.
Вид битрейта : Постоянный
Битрейт : 192 Кбит/сек
Каналы : 2 канала
Расположение каналов : Front: L R
Частота : 48,0 КГц
Битовая глубина : 16 бит
Метод сжатия : С потерями
Размер потока : 170 Мбайт (8%)
Выравнивание : Разделение по промежуткам
Продолжительность промежутка : 42 мс. (1,00 видеокадр)
Время предзагрузки промежутка : 500 мс.
Релиз от:
Автор рипа: pb.wtf



Скачать Кабаре через торрент http://pic.kartinco.top/images/6/fhhgt.jpg Скачать фильм Кабаре через торрент бесплантно в хорошем качестве Описание: Один из самых гениальных мюзиклов в истории мирового кинематографа. Действие фильма происходит в Берлине тридцатых годов ... 10 10 3
Info! Золотая раздача, скачанное не засчитывается.
Торрент: Зарегистрирован [2013-12-29 11:23] · скачан: 23 раз
Статус: √ проверено
Размер: 2.57 GB
Как cкачать? Как скачать Кабаре через торрент | qTorrent

% Раздел Тема Автор DL S | L
Порно фильмы с русским переводом [ 1.46 GB ] Кабаре Содом Клуб / Cabaret Sodom Club [2005 Feature Anal DP DVDRip Субтитры: Русские вшитые] Pir@tya2010 Скачать
1 | 0
Порно фильмы с сюжетом [ 2.15 GB ] Кабаре Берлин / Cabaret Berlin [2007 Feature Anal Double Penetration Toys Oral Straight Group HDRip 720p] sheker187 Скачать
1 | 0
Порно фильмы HD [ 16.76 GB ] Кабаре Желание / Cabaret Desire [2011 RomanticErotic BDRip 1080p] SKAV Скачать
1 | 0
Порно фильмы DVD [ 7.86 GB ] Кабаре Sodom Клуб / Cabaret Sodom Club [2005 Feature Forei. DVD9] compact2010 Скачать
1 | 0
Порно фильмы с сюжетом [ 708 MB ] Кабаре Берлин / Cabaret Berlin [2007 Feature Anal DP 3some HDRip] Shmel Скачать
1 | 0


Последний раз редактировалось: igorutka (2013-12-29 11:53), всего редактировалось 8 раз(а)


>> Регистрируемся здесь <<






Отзывы и комментарии о схеме читаем и пишем здесь: ---> Отзывы и комментарии о схеме

Новые благодарочки в телеграм довольных пользователей:
скриншот   скриншот   скриншот   скриншот   скриншот

29-12-2013 14:10 Кабаре Скачать торрент  

igorutka
Спасибо Качаю однозначно в коллекцию, поддержу раздачу pb.wtf



29-12-2013 15:10 Кабаре Скачать торрент  

marsmoon
Спасибо , бессменный соперник по конкурсу !
Если возникнет желание - могу закинуть фильм в более высоком качестве, данный релиз интересен несколькими вариантами перевода.pb.wtf



29-12-2013 16:12 Кабаре Скачать торрент  

igorutka писал(а):

данный релиз интересен несколькими вариантами перевода

Вот в этом то и дело! И этот пока вполне! pb.wtf



    Дорогой пользователь! Огромная просьба, поблагодарите релизера, оцените раздачу и оставьте свои комментарий, если Вы скачали Кабаре через торрент бесплатно! Внесите свою лепту в развитие PiratBit!
    Комментировать посты могут только пользователи прошедшие не сложную регистрацию
    Показать сообщения:    

    Кабаре через торрент
    Скачать бесплатно Кабаре
    Кабаре скачать торрент
    Кабаре смотреть онлайн
    Cкачать фильм Кабаре бесплатно
    Кабаре скачать торрент в хорошем качестве
    Кабаре смотреть онлайн бесплатно в хорошем качестве


    Вы не можете начинать темы
    Вы не можете отвечать на сообщения
    Вы не можете редактировать свои сообщения
    Вы не можете удалять свои сообщения
    Вы не можете голосовать в опросах
    Вы не можете прикреплять файлы к сообщениям
    Вы можете скачивать файлы