Ссылка на приватное зеркало нашего сайта всего за 1$. Внимание количество ограничено!!!

2 сезон

iTunes

1 сезон

1

iTunes

iTunes

iTunes

1 сезон

RePack

30

ИГРА 18+

pack

ВАЖНО

!!Акция!!

Alien_RageХит недели

RePack

MK11
pack

Забери бонус

RePack

jed

!!Акция!!

Alien_Rage

RePack

fifa19

RePack

Assassins Creed: Odyssey

RePack

NEED FOR SPEED™ PAYBACK

4 сезон

9 сезон

Бесстыжие 9 сезон

Все сериалы

все сериалы на PB.wtf

RePack

FAR CRY 5
  

Географ глобус пропил (Александр Велединский) [2013, Россия, драма, BDRip] pb.wtf

Географ глобус пропил через торрент pb.wtf

Размер: 782 MB | Добавлен: 6 лет 9 мес. назад | Торрент скачан:379 раз
Скачать  

30-12-2013 19:22 Географ глобус пропил Скачать торрент  

Географ глобус пропил
Год выпуска: 2013
Страна: Россия
Жанр: драма
Продолжительность: 02:04:51
Перевод: не требуется
Cубтитры: нет

Режиссер: Александр Велединский

В ролях: Константин Хабенский, Елена Лядова, Александр Робак, Евгения Брик, Анна Уколова, Евгения Крегжде, Агриппина Стеклова, Максим Лагашкин, Анфиса Черных, Андрей Прытков

Описание: Молодой биолог Виктор Служкин от безденежья идет работать учителем географии в обычную пермскую школу. Он борется, а потом и дружит с учениками, конфликтует с завучем, ведет десятиклассников в поход — сплавляться по реке. Еще он пьет с друзьями вино, пытается ужиться с женой и водит в детский сад маленькую дочку. Он просто живет…


Качество: BDRip - Исходник BDRemux 1080p
Формат: AVI
Видео кодек: XviD
Аудио кодек: MP3
Видео: 640x272 (2.35:1), 24.000 fps, XviD build 73 ~738 kbps avg, 0.18 bit/pixel
Аудио: 48 kHz, MPEG Layer 3, 2 ch, ~128.00 kbps avg
Раздача от:
D:Мои рипыGeograf.2013.BDRip.784mb.dexter_lex.avi
General
Complete name : D:Мои рипыGeograf.2013.BDRip.784mb.dexter_lex.avi
Format : AVI
Format/Info : Audio Video Interleave
File size : 782 MiB
Duration : 2h 4mn
Overall bit rate : 876 Kbps
Writing application : VirtualDubMod 1.5.10.3 | www.virtualdub-fr.org || (build 2550/release)
Writing library : VirtualDubMod build 2550/release
Video #0
ID : 0
Format : MPEG-4 Visual
Format profile : Advanced Simple@L5
Format settings, BVOP : 1
Format settings, QPel : No
Format settings, GMC : No warppoints
Format settings, Matrix : Custom
Codec ID : XVID
Codec ID/Hint : XviD
Duration : 2h 4mn
Bit rate : 739 Kbps
Width : 640 pixels
Height : 272 pixels
Display aspect ratio : 2.35:1
Frame rate : 24.000 fps
Color space : YUV
Chroma subsampling : 4:2:0
Bit depth : 8 bits
Scan type : Progressive
Compression mode : Lossy
Bits/(Pixel*Frame) : 0.177
Stream size : 660 MiB (84%)
Writing library : XviD 73
Audio #1
ID : 1
Format : MPEG Audio
Format version : Version 1
Format profile : Layer 3
Codec ID : 55
Codec ID/Hint : MP3
Duration : 2h 4mn
Bit rate mode : Constant
Bit rate : 128 Kbps
Channel(s) : 2 channels
Sampling rate : 48.0 KHz
Compression mode : Lossy
Stream size : 114 MiB (15%)
Alignment : Aligned on interleaves
Interleave, duration : 42 ms (1.00 video frame)
Interleave, preload duration : 504 ms
Writing library : LAME3.99r
Encoding settings : -m s -V 4 -q 2 -lowpass 17 -b 128
pb.wtf



Скачать Географ глобус пропил через торрент http://lostpic.net/orig_images/e/0/3/e033b45b66bd801db55f97256ab34d43.jpg Скачать фильм Географ глобус пропил через торрент бесплантно в хорошем качестве Описание: Молодой биолог Виктор Служкин от безденежья идет работать учителем географии в обычную пермскую школу. Он борется, а потом и ... 8.8 10 13
Info! Золотая раздача, скачанное не засчитывается.
Торрент: Зарегистрирован [2013-12-30 19:22] · скачан: 379 раз
Статус: √ проверено
Размер: 782 MB
Как cкачать? Как скачать Географ глобус пропил через торрент | qTorrent

% Раздел Тема Автор DL S | L
Наши новые фильмы 2013 [ 2.18 GB ] Географ глобус пропил [2013 BDRip] [] killermax2013 Скачать
2 | 0
Наши фильмы (HD, WEB-DL 720p, 1080p) [ 10.47 GB ] Географ глобус пропил [2013 BDRip 1080p] Newton5 Скачать
1 | 1
Наши новые фильмы 2013 [ 2.19 GB ] Географ глобус пропил [2013 BDRip-AVC ] potroks Скачать
1 | 0
Наши фильмы (DVD фильмы) [ 6.7 GB ] Географ глобус пропил [2013 DVD9] R5 voovaz Скачать
1 | 0
Наши новые фильмы 2013 [ 1.46 GB ] Географ глобус пропил [2013 Россия BDRip] dexter lex Скачать
1 | 0
Наши фильмы (Blu-ray, BD-Remux, HDDVD) [ 16.23 GB ] Географ глобус пропил [2013 Россия BDRemux 1080p] Messa-fan Скачать
1 | 0
Наши новые фильмы 2013 [ 1.46 GB ] Географ глобус пропил [2013 Россия BDRip] Messa-fan Скачать
1 | 0

28-11-2019 20:33  

Отключить всю рекламу на сайте

31-12-2013 07:25 Географ глобус пропил Скачать торрент  

как фильм то?pb.wtf



02-05-2014 16:00 Географ глобус пропил Скачать торрент  

Смотрибилен фильм. Не шедевр, но и не представитель современного кинематографического декаданса.pb.wtf



    Дорогой пользователь! Огромная просьба, поблагодарите релизера, оцените раздачу и оставьте свои комментарий, если Вы скачали Географ глобус пропил через торрент бесплатно! Внесите свою лепту в развитие PiratBit!
    Комментировать посты могут только пользователи прошедшие не сложную регистрацию
    Показать сообщения:    

    Географ глобус пропил через торрент
    Скачать бесплатно Географ глобус пропил
    Географ глобус пропил скачать торрент
    Географ глобус пропил смотреть онлайн
    Cкачать фильм Географ глобус пропил бесплатно
    Географ глобус пропил скачать торрент в хорошем качестве
    Географ глобус пропил смотреть онлайн бесплатно в хорошем качестве


    Вы не можете начинать темы
    Вы не можете отвечать на сообщения
    Вы не можете редактировать свои сообщения
    Вы не можете удалять свои сообщения
    Вы не можете голосовать в опросах
    Вы не можете прикреплять файлы к сообщениям
    Вы можете скачивать файлы