Достать ножи: Стеклянная луковица

MVO

Добыча

Дубляж

Уэнсдэй

1 сезон

Тор

Дубляж

13 клиническая

1 сезон

Жестокая ночь

MVO

Одни из нас

1 сезон

Deluxe

pack

Рекомендуем

30

Пиратка

ВАЖНО

ВАЖНО

Ghostwire

Пиратка

jed

RePack

nioh2

RePack

RDR2

RePack

NEED FOR SPEED™ PAYBACK

RePack

скачать торрент

Кинопоиск HD

Острые козырьки 6 сезон

6 сезон

FAR CRY 6

RePack

скачать торрент

Лицензия

скачать торрент

MVO

1

1 сезон

скачать торрент

1 сезон

скачать торрент

Лицензия

  

Queen: Live at Wembley Stadium [01.01.1986 г., Концертное видео, DVDRip]

Queen: Live at Wembley Stadium через торрент pb.wtf

Размер: 1.46 GB | Добавлен: 9 лет 1 мес. назад | Торрент скачан:94 раза
| Скачать | Поддержите нас   

30-12-2013 21:02 Queen: Live at Wembley Stadium Скачать торрент  

Queen: Live at Wembley Stadium
Год выпуска: 01.01.1986 г.
Страна: UK
Жанр: Концертное видео
Продолжительность: 01:51:32
Описание: Этот грандиозный бесплатный концерт, прошедший на лондонском Уэмбли 12 июня 1985 года, можно назвать ярчайшим концертным выступлением группы за всё время её существования. Мощные хард-рок композиции сменяют нежные акустические баллады, вслед за песнями Элвиса Пресли стадион сотрясают рок-гимны. Бесподобный голос Фредди Меркьюри берёт за душу и не отпускает её до самого конца выступления. За 2 дня стадион посетило 160 тыс. человек.

Качество: DVDRip
Формат: AVI
Видео кодек: XviD
Аудио кодек: AC3
Видео: Xvid, 720x576, 25.00fps ,1419 Кбит/с
Аудио#1: AC3, 448 Кбит/с ,48.0 KHz.6 channels.
1. One Vision (Queen)
2. Tie Your Mother Down (May)
3. In The Lap Of The Gods… Revisited (Mercury)
4. Seven Seas Of Rhye (Mercury)
5. Tear It Up (May)
6. A Kind Of Magic (Taylor)
7. Under Pressure (Queen/Bowie)
8. Another One Bites The Dust (Deacon)
9. Who Wants To Live Forever (May)
10. I Want To Break Free (Deacon)
11. Impromptu (Queen)
12. Brighton Rock Solo (May)
13. Now I’m Here (May)
14. Love Of My Life (Mercury)
15. Is This The World We Created…? (Mercury/May)
16. (You’re So Square) Baby I Don’t Care (Leiber & Stoller)
17. Hello Mary Lou (Goodbye Heart) (Gene Pitney)
18. Tutti Frutti (Penniman & LaBostrie)
19. Gimme Some Lovin’ (Winwood/Winwood/Davis)
20. Bohemian Rhapsody (Mercury)
21. Hammer To Fall (May)
22. Crazy Little Thing Called Love (Mercury)
23. Big Spender (Coleman & Fields)
24. Radio Ga Ga (Taylor)
25. We Will Rock You (May)
26. Friends Will Be Friends (Mercury/Deacon)
27. We Are The Champions (Mercury)
28. God Save The Queen (Trad. Arr. May)





I:a1queen.avi
General
Complete name : I:a1queen.avi
Format : AVI
Format/Info : Audio Video Interleave
File size : 1.46 GiB
Duration : 1h 51mn
Overall bit rate : 1 877 Kbps
Writing application : VirtualDubMod 1.5.10.3 (build 2550/release)
Writing library : VirtualDubMod build 2550/release
Video #0
ID : 0
Format : MPEG-4 Visual
Format profile : Advanced [email protected]
Format settings, BVOP : 1
Format settings, QPel : No
Format settings, GMC : No warppoints
Format settings, Matrix : Default (H.263)
Muxing mode : Packed bitstream
Codec ID : XVID
Codec ID/Hint : XviD
Duration : 1h 51mn
Bit rate : 1 419 Kbps
Width : 720 pixels
Height : 576 pixels
Display aspect ratio : 5:4
Frame rate : 25.000 fps
Standard : PAL
Color space : YUV
Chroma subsampling : 4:2:0
Bit depth : 8 bits
Scan type : Progressive
Compression mode : Lossy
Bits/(Pixel*Frame) : 0.137
Stream size : 1.10 GiB (76%)
Writing library : XviD 1.2.1 (UTC 2008-12-04)
Audio #1
ID : 1
Format : AC-3
Format/Info : Audio Coding 3
Mode extension : CM (complete main)
Format settings, Endianness : Big
Codec ID : 2000
Duration : 1h 51mn
Bit rate mode : Constant
Bit rate : 448 Kbps
Channel(s) : 6 channels
Channel positions : Front: L C R, Side: L R, LFE
Sampling rate : 48.0 KHz
Bit depth : 16 bits
Compression mode : Lossy
Stream size : 356 MiB (24%)
Alignment : Split accross interleaves
Interleave, duration : 40 ms (1.00 video frame)
Interleave, preload duration : 500 ms




Скачать Queen: Live at Wembley Stadium через торрент http://i58.fastpic.ru/big/2013/1230/60/959b3a857ffa8bebbe43918583497360.jpg Скачать, смотреть онлайн Queen: Live at Wembley Stadium [01.01.1986 г., Концертное видео, DVDRip] бесплантно в хорошем качестве Описание: Этот грандиозный бесплатный концерт, прошедший на лондонском Уэмбли 12 июня 1985 года, можно назвать ярчайшим концертным ... 9.7 10 6
Info! Золотая раздача, скачанное не засчитывается.
Торрент: Зарегистрирован [2013-12-30 21:02] · скачан: 94 раз
Статус: √ проверено
Размер: 1.46 GB
Как cкачать? Как скачать Queen: Live at Wembley Stadium через торрент | UTorrent

% Раздел Тема Автор DL S | L
Концерты [ 4.95 GB ] Queen: Live at Wembley Stadium [г.1986, DVD5 | | Queen: Live at Wembley Stadium [г.1986, DVD5 Anonymous Скачать
1 | 0

28-11-2019 20:33  


Отключить вcю реклaмy на сайте, в т.ч. и в плеере онлайн просмотра!

18-06-2015 07:17 Queen: Live at Wembley Stadium Скачать торрент  

Обложка не соответсвует содержанию.



    Дорогой пользователь! Огромная просьба, поблагодарите релизера, оцените раздачу и оставьте свои комментарий, если Вы скачали Queen: Live at Wembley Stadium через торрент бесплатно!!
    Комментировать посты могут только пользователи прошедшие не сложную регистрацию
    Показать сообщения:    


    Queen: Live at Wembley Stadium через торрент
    Скачать бесплатно Queen: Live at Wembley Stadium
    Queen: Live at Wembley Stadium скачать торрент
    Queen: Live at Wembley Stadium смотреть онлайн
    Cкачать фильм Queen: Live at Wembley Stadium бесплатно
    Queen: Live at Wembley Stadium скачать торрент в хорошем качестве
    Queen: Live at Wembley Stadium смотреть онлайн бесплатно в хорошем качестве
    Вы не можете начинать темы
    Вы не можете отвечать на сообщения
    Вы не можете редактировать свои сообщения
    Вы не можете удалять свои сообщения
    Вы не можете голосовать в опросах
    Вы не можете прикреплять файлы к сообщениям
    Вы можете скачивать файлы
    Queen: Live at Wembley Stadium [01.01.1986 г., Концертное видео, DVDRip] смотреть онлайн, скачать торрент picoco.icu