новый адрес
Мега распродажа FORZA HORIZON 4 ULTIMATE+ВСЕ DLC+ОНЛАЙН всего за 499р. 349 руб. (супер цена). Внимание количество ограничено!!!

iTunes

1+1

iTunes

мы

iTunes

1

iTunes

Чернобыль

iTunes

Ральф против интернета

Лицензия

ПШазам

Лицензия

Оно 2

Лицензия

30
pack

ВАЖНО

!!Акция!!

Alien_RageХит недели

RePack

Resident Evil 21

ИГРА 18+

pack

RePack

Metro:Exodus

!!Акция!!

Alien_Rage

RePack

fifa19

RePack

Assassins Creed: Odyssey

RePack

NEED FOR SPEED™ PAYBACK

3 сезон

9 сезон

Бесстыжие 9 сезон

Все сериалы

все сериалы на PB.wtf

RePack

FAR CRY 5
Ребята, катастрофически не хватает 1900р. для оплаты серверов за Октябрь (всвязи с блокировками трафик упал в 3 раза), 1-2р., выручайте.
  

Приключения принца Флоризеля (Евгений Татарский) [СССР,1979 г., комедия, криминал, приключения,DVDRip] pb.wtf

Приключения принца Флоризеля через торрент pb.wtf

Размер: 4.1 GB | Добавлен: 5 лет 10 мес. назад | Торрент скачан:96 раз
Скачать  

31-12-2013 15:49 Приключения принца Флоризеля Скачать торрент  

Приключения принца Флоризеля / Клуб самоубийц или Приключения титулованной особы (1979)
Год выпуска: 1979
Страна: СССР
Премьера в мире: 12 января 1981
Жанр: комедия, криминал, приключения
Продолжительность: 01:03:39+01:03:27+01:03:29
Субтитры: Нет

Режиссер: Евгений Татарский
Сценарий: Эдгар Дубровский, Роберт Льюис Стивенсон


Возраст : 12+ зрителям, достигшим 12 лет

В ролях: Олег Даль, Донатас Банионис (озвучание - Александр Демьяненко), Игорь Дмитриев, Любовь Полищук, Виталий Ильин, Игорь Янковский, Асхаб Абакаров, Елена Соловей, Борис Новиков, Иван Мокеев, Владимир Шевельков, Михаил Пуговкин, Владимир Басов, Гелий Сысоев, Валерий Матвеев, Евгений Киндинов, Елена Цыплакова, Мария Белкина, Михаил Бирбраер, Вячеслав Васильев, Валентин Голубенко, Кирилл Гунн, Валерий Доронин, Евгений Иловайский, Тариел Кения, Николай Кузьмин, Владимир Лосев, Любовь Малиновская, Валерий Миронов, Галина Мочалова, Анатолий Подшивалов, Илья Резник (озвучание - Лев Милиндер), Галина Самохина, Анатолий Столбов, Валерий Филонов, Валерий Черняев,

Описание: Пародия на авантюрно-приключенческий жанр по мотивам циклов рассказов "Клуб самоубийц" и "Алмаз раджи" Р.- Л. Стивенсона.
Жизнь так скучна порой, что развлечением становится даже спасение бедного художника, пожелавшего расстаться с миром, бросившись в реку. Он-то и приводит главу небольшого государства - скучающего принца Флоризеля - и его верного друга, полковника Джеральдина в некий клуб, все члены которого "ходят по острию ножа"...

Доп. информация: По мотивам циклов повестей "Клуб самоубийц" и "Алмаз раджи" Роберта Льюиса Стивенсона.

Качество: DVDRip
Формат: AVI
Видео кодек: XviD
Аудио кодек: AC3
Видео: XviD , 720x544 (4:3) , 2 620 Kbps , 25.000 fps, 0.268 Bits
Аудио: AC3, 448 Kbps, 6 ch, 48.0 KHz
Рип от:
Оформление : igorutka
  • Первоначально фильм назывался «Клуб самоубийц, или Приключения титулованной особы». Однако, руководству Госкино СССР такое название не понравилось. В январе 1981 года фильм вышел на телеэкраны под названием "Приключения принца Флоризеля". Оригинальное название было возвращено в 1990-е годы.
  • Вячеслав Васильев, сыгравший в фильме одну из самых ярких эпизодических ролей - мистера Мальтуса, - по профессии был врачом и не имел актёрского образования. Несмотря на это, до «Приключений принца Флоризеля» успел сыграть в нескольких фильмах.
  • Съемки проходили в Каунасе и в Сочи.
  • Одну из эпизодических ролей сыграл, уже будучи тяжело больным, Анатолий Подшивалов.
  • Портрет Председателя, который выполнил Перкинс, — шарж на знаменитый "Портрет Амбруаза Воллара" работы Пабло Пикассо.
Олег Даль снялся в 32 фильмах. Казалось бы, не так уж и мало. Неправда - чудовищно мало, абсолютно несопоставимо с масштабом его таланта. Могло бы быть гораздо больше, если бы не травля Даля со стороны печально известного начальника актерского отдела "Мосфильма" Адольфа Гуревича, а также очень высокая требовательность актера к самому себе и к предлагаемым сценариям - и извечная русская тоска, помноженная на алкоголь.
"...Ты - сын России, с колыбели зажатый в рамки и тиски.
Но умер ты в своей постели - от русской водки и тоски..."

Хотя эти строки посвящены Владимиру Высоцкому, но и к жизни и смерти Олега Даля они подходят с убийственной точностью. Этот фильм - одна из последних работ в кино великого русского актера. После были только "Мы смерти смотрели в лицо" и "Незваный друг". 3 марта 1981 года Даля не стало. Ему было 39...
Леонид Филатов посвятил Олегу Далю одну из передач цикла "Чтобы помнили..." (№ 11).

Общее
Полное имя : D:tempKlub samoubiic, ili Priklyucheniya titulovannoi osoby�1 серия.avi
Формат : AVI
Формат/Информация : Audio Video Interleave
Размер файла : 1,37 Гбайт
Продолжительность : 1 ч. 3 м.
Общий поток : 3075 Кбит/сек
Программа кодирования : VirtualDubMod 1.5.4.1 (build 2178/release)
Библиотека кодирования : VirtualDubMod build 2178/release

Видео
Идентификатор : 0
Формат : MPEG-4 Visual
Профиль формата : Advanced Simple@L5
Параметр BVOP формата : Нет
Параметр QPel формата : Нет
Параметр GMC формата : Без точки перехода
Параметр матрицы формата : Выборочная
Идентификатор кодека : XVID
Идентификатор кодека/Подсказка : XviD
Продолжительность : 1 ч. 3 м.
Битрейт : 2620 Кбит/сек
Ширина : 720 пикселей
Высота : 544 пикселя
Соотношение сторон : 4:3
Частота кадров : 25,000 кадров/сек
Цветовое пространство : YUV
Субдискретизация насыщенности : 4:2:0
Битовая глубина : 8 бит
Тип развёртки : Прогрессивная
Метод сжатия : С потерями
Бит/(Пиксели*Кадры) : 0.268
Размер потока : 1,17 Гбайт (85%)
Библиотека кодирования : XviD 1.2.1 (UTC 2008-12-04)

Аудио
Идентификатор : 1
Формат : AC-3
Формат/Информация : Audio Coding 3
Расширение режима : CM (complete main)
Параметр Endianness формата : Big
Идентификатор кодека : 2000
Продолжительность : 1 ч. 3 м.
Вид битрейта : Постоянный
Битрейт : 448 Кбит/сек
Каналы : 6 каналов
Расположение каналов : Front: L C R, Side: L R, LFE
Частота : 48,0 КГц
Битовая глубина : 16 бит
Метод сжатия : С потерями
Задержка видео : 703 мс.
Размер потока : 204 Мбайт (15%)
Выравнивание : Разделение по промежуткам
Продолжительность промежутка : 96 мс. (2,40 видеокадра)
Время предзагрузки промежутка : 96 мс.

скриншот   скриншот   скриншот   скриншот   скриншот   скриншот   скриншот   скриншот   скриншот   скриншот  
Общее
Полное имя : D:tempKlub samoubiic, ili Priklyucheniya titulovannoi osoby�2 серия.avi
Формат : AVI
Формат/Информация : Audio Video Interleave
Размер файла : 1,37 Гбайт
Продолжительность : 1 ч. 3 м.
Общий поток : 3085 Кбит/сек
Программа кодирования : VirtualDubMod 1.5.4.1 (build 2178/release)
Библиотека кодирования : VirtualDubMod build 2178/release

Видео
Идентификатор : 0
Формат : MPEG-4 Visual
Профиль формата : Advanced Simple@L5
Параметр BVOP формата : 1
Параметр QPel формата : Нет
Параметр GMC формата : Без точки перехода
Параметр матрицы формата : Выборочная
Идентификатор кодека : XVID
Идентификатор кодека/Подсказка : XviD
Продолжительность : 1 ч. 3 м.
Битрейт : 2630 Кбит/сек
Ширина : 720 пикселей
Высота : 544 пикселя
Соотношение сторон : 4:3
Частота кадров : 25,000 кадров/сек
Цветовое пространство : YUV
Субдискретизация насыщенности : 4:2:0
Битовая глубина : 8 бит
Тип развёртки : Прогрессивная
Метод сжатия : С потерями
Бит/(Пиксели*Кадры) : 0.269
Размер потока : 1,17 Гбайт (85%)
Библиотека кодирования : XviD 1.2.1 (UTC 2008-12-04)

Аудио
Идентификатор : 1
Формат : AC-3
Формат/Информация : Audio Coding 3
Расширение режима : CM (complete main)
Параметр Endianness формата : Big
Идентификатор кодека : 2000
Продолжительность : 1 ч. 3 м.
Вид битрейта : Постоянный
Битрейт : 448 Кбит/сек
Каналы : 6 каналов
Расположение каналов : Front: L C R, Side: L R, LFE
Частота : 48,0 КГц
Битовая глубина : 16 бит
Метод сжатия : С потерями
Размер потока : 203 Мбайт (15%)
Выравнивание : Разделение по промежуткам
Продолжительность промежутка : 96 мс. (2,40 видеокадра)
Время предзагрузки промежутка : 96 мс.

скриншот   скриншот   скриншот   скриншот   скриншот   скриншот   скриншот   скриншот   скриншот   скриншот  
Общее
Полное имя : D:tempKlub samoubiic, ili Priklyucheniya titulovannoi osoby�3 серия.avi
Формат : AVI
Формат/Информация : Audio Video Interleave
Размер файла : 1,37 Гбайт
Продолжительность : 1 ч. 3 м.
Общий поток : 3083 Кбит/сек
Программа кодирования : VirtualDubMod 1.5.4.1 (build 2178/release)
Библиотека кодирования : VirtualDubMod build 2178/release

Видео
Идентификатор : 0
Формат : MPEG-4 Visual
Профиль формата : Advanced Simple@L5
Параметр BVOP формата : 1
Параметр QPel формата : Нет
Параметр GMC формата : Без точки перехода
Параметр матрицы формата : Выборочная
Идентификатор кодека : XVID
Идентификатор кодека/Подсказка : XviD
Продолжительность : 1 ч. 3 м.
Битрейт : 2628 Кбит/сек
Ширина : 720 пикселей
Высота : 544 пикселя
Соотношение сторон : 4:3
Частота кадров : 25,000 кадров/сек
Цветовое пространство : YUV
Субдискретизация насыщенности : 4:2:0
Битовая глубина : 8 бит
Тип развёртки : Прогрессивная
Метод сжатия : С потерями
Бит/(Пиксели*Кадры) : 0.268
Размер потока : 1,17 Гбайт (85%)
Библиотека кодирования : XviD 1.2.1 (UTC 2008-12-04)

Аудио
Идентификатор : 1
Формат : AC-3
Формат/Информация : Audio Coding 3
Расширение режима : CM (complete main)
Параметр Endianness формата : Big
Идентификатор кодека : 2000
Продолжительность : 1 ч. 3 м.
Вид битрейта : Постоянный
Битрейт : 448 Кбит/сек
Каналы : 6 каналов
Расположение каналов : Front: L C R, Side: L R, LFE
Частота : 48,0 КГц
Битовая глубина : 16 бит
Метод сжатия : С потерями
Задержка видео : 587 мс.
Размер потока : 203 Мбайт (15%)
Выравнивание : Разделение по промежуткам
Продолжительность промежутка : 96 мс. (2,40 видеокадра)
Время предзагрузки промежутка : 96 мс.

скриншот   скриншот   скриншот   скриншот   скриншот   скриншот   скриншот   скриншот   скриншот   скриншот  
pb.wtf



Скачать Приключения принца Флоризеля через торрент http://pic.kartinco.top/images/6/iucpk.jpg Скачать фильм Приключения принца Флоризеля через торрент бесплантно в хорошем качестве Описание: Пародия на авантюрно-приключенческий жанр по мотивам циклов рассказов "Клуб самоубийц" и "Алмаз раджи" Р.- Л. Стивенсона.Жизнь ... 10 10 11
Info! Золотая раздача, скачанное не засчитывается.
Торрент: Зарегистрирован [2013-12-31 15:49] · скачан: 96 раз
Статус: √ проверено
Размер: 4.1 GB
Как cкачать? Как скачать Приключения принца Флоризеля через торрент | qTorrent

% Раздел Тема Автор DL S | L
Приключения-путешествия [ 358 MB ] Роберт Льюис Стивенсон - принца Флоризеля [Иван ЛитвиновВиталий Толубеев 2015 128 kbps MP3] Armstrong Скачать
1 | 0


>> Регистрируемся здесь <<






Отзывы и комментарии о схеме читаем и пишем здесь: ---> Отзывы и комментарии о схеме

Новые благодарочки в телеграм довольных пользователей:
скриншот   скриншот   скриншот   скриншот   скриншот
    Дорогой пользователь! Огромная просьба, поблагодарите релизера, оцените раздачу и оставьте свои комментарий, если Вы скачали Приключения принца Флоризеля через торрент бесплатно! Внесите свою лепту в развитие PiratBit!
    Комментировать посты могут только пользователи прошедшие не сложную регистрацию
    Показать сообщения:    

    Приключения принца Флоризеля через торрент
    Скачать бесплатно Приключения принца Флоризеля
    Приключения принца Флоризеля скачать торрент
    Приключения принца Флоризеля смотреть онлайн
    Cкачать фильм Приключения принца Флоризеля бесплатно
    Приключения принца Флоризеля скачать торрент в хорошем качестве
    Приключения принца Флоризеля смотреть онлайн бесплатно в хорошем качестве


    Вы не можете начинать темы
    Вы не можете отвечать на сообщения
    Вы не можете редактировать свои сообщения
    Вы не можете удалять свои сообщения
    Вы не можете голосовать в опросах
    Вы не можете прикреплять файлы к сообщениям
    Вы можете скачивать файлы