1 сезон

1 сезон

iTunes

1

КиноПоиск HD

Кинопоиск HD

iTunes

13

1 сезон

RePack

30

Новинка

ВАЖНО

ИГРА 18+

pack

RePack

MK11
pack

Легкие деньги

RePack

jed

RePack

fifa19

RePack

RDR2

RePack

NEED FOR SPEED™ PAYBACK

4 сезон

9 сезон

Бесстыжие 9 сезон

Все сериалы

все сериалы на PB.wtf

RePack

FAR CRY 5
  
Magnet ссылка

Пережить Рождество / Surviving Christmas (Майк Митчелл / Mike Mitchell) [2004 г., Мелодрама, комедия, BDRip-AVC] Dub (R5) + Original (eng) + Sub (rus., eng.) pb.wtf

Пережить Рождество через торрент pb.wtf

Размер: 2.19 GB | Добавлен: 7 лет 3 мес. назад | Торрент скачан:123 раза
Скачать  

31-12-2013 16:03 Пережить Рождество Скачать торрент  

Пережить Рождество / Surviving Christmas
Год выпуска: 2004
Страна: США / DreamWorks SKG, LivePlanet, Tall Trees Productions
Жанр: Мелодрама, комедия,
Продолжительность: 01:30:42
Перевод: Дубляж, Лицензия
Субтитры: Русские, английские (Full + SDH)

Режиссер: Майк Митчелл / Mike Mitchell



В ролях: Бен Аффлек, Джеймс Гандольфини, Кристина Эпплгейт, Кэтрин О’Хара, Джош Цуккерман, Билл Мэйси, Дженнифер Моррисон, Удо Кир, Дэвид Селби, Стефани Фэраси,

Описание: Опостылевшая рутинная жизнь богача Дрю Лэтама приводит его на Рождество в пригородный дом своего детства. И даже тот факт, что дом заселён теперь другими людьми, не может испортить Дрю настроение. За солидное вознаграждение он предлагает семейке Валко на время стать его роднёй, и сам мечтает отметить праздник в их кругу. Вот только деньги кружат голову далеко не всем его новым родственникам, да и сами Валко, кажется, представляют собой редкую семейку психопатов…

Качество: BDRip-AVC
Формат: MKV
Видео кодек: H.264
Аудио кодек: AC3
Видео: 1068x602 (16:9), 23,976 fps, 2682 Кbps, 0.174 bit/pixel
Аудио#1: 48 kHz, AC3 Dolby Digital, 3/2 (L,C,R,l,r) + LFE ch, 384.00 kbps | RUS
Аудио#2: 48 kHz, AC3 Dolby Digital, 3/2 (L,C,R,l,r) + LFE ch, 384.00 kbps | ENG

Релиз группы:
Автор рипа: potroks





Общее
Уникальный идентификатор : 207704781583598415082212628513981859777 (0x9C427C604CE1C231905F2CB0F66A07C1)
Полное имя : Perezhyt'.Rozhdestvo.2004.DUAL.BDRip.x264.-HELLYWOOD.mkv
Формат : Matroska
Версия формата : Version 4 / Version 2
Размер файла : 2,19 Гбайт
Продолжительность : 1 ч. 30 м.
Общий поток : 3449 Кбит/сек
Название фильма : HELLYWOOD - rip by potroks
Дата кодирования : UTC 2013-12-14 06:38:30
Программа кодирования : mkvmerge v5.9.0 ('On The Loose') built on Dec 15 2012 16:39:58
Библиотека кодирования : libebml v1.3.0 + libmatroska v1.4.0

Видео
Идентификатор : 1
Формат : AVC
Формат/Информация : Advanced Video Codec
Профиль формата : High@L4.1
Параметр CABAC формата : Да
Параметр ReFrames формата : 11 кадров
Идентификатор кодека : V_MPEG4/ISO/AVC
Продолжительность : 1 ч. 30 м.
Битрейт : 2682 Кбит/сек
Ширина : 1068 пикселей
Высота : 602 пикселя
Соотношение сторон : 16:9
Режим частоты кадров : Постоянный
Частота кадров : 23,976 кадра/сек
Цветовое пространство : YUV
Субдискретизация насыщенности : 4:2:0
Битовая глубина : 8 бит
Тип развёртки : Прогрессивная
Бит/(Пиксели*Кадры) : 0.174
Размер потока : 1,66 Гбайт (76%)
Заголовок : Surviving Christmas
Библиотека кодирования : x264 core 130 r2273 b3065e6
Настройки программы : cabac=1 / ref=11 / deblock=1:-3:-3 / analyse=0x3:0x133 / me=umh / subme=11 / psy=1 / psy_rd=0.97:0.00 / mixed_ref=1 / me_range=48 / chroma_me=1 / trellis=2 / 8x8dct=1 / cqm=0 / deadzone=21,11 / fast_pskip=0 / chroma_qp_offset=-2 / threads=9 / lookahead_threads=8 / sliced_threads=0 / nr=0 / decimate=0 / interlaced=0 / bluray_compat=0 / constrained_intra=0 / bframes=12 / b_pyramid=2 / b_adapt=2 / b_bias=0 / direct=3 / weightb=1 / open_gop=0 / weightp=2 / keyint=250 / keyint_min=23 / scenecut=40 / intra_refresh=0 / rc_lookahead=60 / rc=2pass / mbtree=0 / bitrate=2682 / ratetol=1.0 / qcomp=0.70 / qpmin=0 / qpmax=69 / qpstep=4 / cplxblur=20.0 / qblur=0.5 / vbv_maxrate=20000 / vbv_bufsize=25000 / nal_hrd=none / ip_ratio=1.35 / pb_ratio=1.25 / aq=1:0.90
Язык : English
Default : Да
Forced : Нет

Аудио #1
Идентификатор : 2
Формат : AC-3
Формат/Информация : Audio Coding 3
Расширение режима : CM (complete main)
Параметр Endianness формата : Big
Идентификатор кодека : A_AC3
Продолжительность : 1 ч. 30 м.
Вид битрейта : Постоянный
Битрейт : 384 Кбит/сек
Каналы : 6 каналов
Расположение каналов : Front: L C R, Side: L R, LFE
Частота : 48,0 КГц
Битовая глубина : 16 бит
Метод сжатия : С потерями
Размер потока : 249 Мбайт (11%)
Заголовок : Dub | DD 5.1 @ 384 kbps - R5
Язык : Russian
Default : Да
Forced : Да

Аудио #2
Идентификатор : 3
Формат : AC-3
Формат/Информация : Audio Coding 3
Расширение режима : CM (complete main)
Параметр Endianness формата : Big
Идентификатор кодека : A_AC3
Продолжительность : 1 ч. 30 м.
Вид битрейта : Постоянный
Битрейт : 384 Кбит/сек
Каналы : 6 каналов
Расположение каналов : Front: L C R, Side: L R, LFE
Частота : 48,0 КГц
Битовая глубина : 16 бит
Метод сжатия : С потерями
Размер потока : 249 Мбайт (11%)
Заголовок : Original | DD 5.1 @ 384 kbps
Язык : English
Default : Нет
Forced : Нет

Текст #1
Идентификатор : 4
Формат : UTF-8
Идентификатор кодека : S_TEXT/UTF8
Идентификатор кодека/Информация : UTF-8 Plain Text
Язык : Russian
Default : Нет
Forced : Нет

Текст #2
Идентификатор : 5
Формат : UTF-8
Идентификатор кодека : S_TEXT/UTF8
Идентификатор кодека/Информация : UTF-8 Plain Text
Язык : English
Default : Нет
Forced : Нет

Текст #3
Идентификатор : 6
Формат : UTF-8
Идентификатор кодека : S_TEXT/UTF8
Идентификатор кодека/Информация : UTF-8 Plain Text
Заголовок : SDH
Язык : English
Default : Нет
Forced : Нет

Меню
00:00:00.000 : en:(01)00:00:00:000
00:02:39.576 : en:(02)00:02:39:576
00:08:43.356 : en:(03)00:08:43:356
00:13:43.113 : en:(04)00:13:43:113
00:17:23.292 : en:(05)00:17:23:292
00:19:53.817 : en:(06)00:19:53:817
00:23:01.213 : en:(07)00:23:01:213
00:27:38.156 : en:(08)00:27:38:156
00:29:22.510 : en:(09)00:29:22:510
00:34:19.807 : en:(10)00:34:19:807
00:36:40.907 : en:(11)00:36:40:907
00:43:41.619 : en:(12)00:43:41:619
00:47:03.654 : en:(13)00:47:03:654
00:50:31.445 : en:(14)00:50:31:445
00:52:46.580 : en:(15)00:52:46:580
00:56:19.834 : en:(16)00:56:19:834
01:00:04.726 : en:(17)01:00:04:726
01:05:16.871 : en:(18)01:05:16:871
01:08:14.840 : en:(19)01:08:14:840
01:11:51.265 : en:(20)01:11:51:265
01:15:45.123 : en:(21)01:15:45:123
01:18:35.252 : en:(22)01:18:35:252
01:21:40.061 : en:(23)01:21:40:061
01:25:06.309 : en:(24)01:25:06:309
01:30:42.687 : en:(25)01:30:42:687

pb.wtf



Скачать Пережить Рождество через торрент http://i57.fastpic.ru/big/2013/1231/d3/74139770b794673c3268dd796fcdb0d3.jpg Скачать фильм Пережить Рождество через торрент бесплантно в хорошем качестве Описание: Опостылевшая рутинная жизнь богача Дрю Лэтама приводит его на Рождество в пригородный дом своего детства. И даже тот факт, что ... 10 10 4
Info! Золотая раздача, скачанное не засчитывается.
Торрент: Зарегистрирован [2013-12-31 16:03] · скачан: 123 раз
Статус: √ проверено
Размер: 2.19 GB
Как cкачать? Как скачать Пережить Рождество через торрент | UTorrent

% Раздел Тема Автор DL S | L
Фильмы [HD 720p, 1080p] (Хороший звук DUB, MVO) [ 13.63 GB ] Пережить Рождество / Surviving Christmas / 2004 [2004 BDRip 1080p by msltel] DUB DVO 2 x AVO msltel Скачать
1 | 0
Фильмы [HD 720p, 1080p] (Хороший звук DUB, MVO) [ 5.34 GB ] Пережить Рождество / Surviving Christmas / 2004 [2004 BDRip 720p by msltel] DUB DVO 2 x AVO msltel Скачать
1 | 0
Фильмы [HD 720p, 1080p] (Хороший звук DUB, MVO) [ 4.37 GB ] Пережить Рождество / Surviving Christmas [2004 BDRip 720p DUB MVO AVO] _denis_100 Скачать
1 | 0
Фильмы 2001-2005 [ 1.46 GB ] Пережить Рождество / Surviving Christmas [2004 HDRip лицензия] jingles Скачать
2 | 0

28-11-2019 20:33  

Отключить всю рекламу на сайте


    Дорогой пользователь! Огромная просьба, поблагодарите релизера, оцените раздачу и оставьте свои комментарий, если Вы скачали Пережить Рождество через торрент бесплатно! Внесите свою лепту в развитие PiratBit!
    Комментировать посты могут только пользователи прошедшие не сложную регистрацию
    Показать сообщения:    

    Пережить Рождество через торрент
    Скачать бесплатно Пережить Рождество
    Пережить Рождество скачать торрент
    Пережить Рождество смотреть онлайн
    Cкачать фильм Пережить Рождество бесплатно
    Пережить Рождество скачать торрент в хорошем качестве
    Пережить Рождество смотреть онлайн бесплатно в хорошем качестве


    Вы не можете начинать темы
    Вы не можете отвечать на сообщения
    Вы не можете редактировать свои сообщения
    Вы не можете удалять свои сообщения
    Вы не можете голосовать в опросах
    Вы не можете прикреплять файлы к сообщениям
    Вы можете скачивать файлы