Ссылка на приватное зеркало нашего сайта всего за 1$. Внимание количество ограничено!!!

2 сезон

iTunes

1 сезон

1

iTunes

iTunes

iTunes

1 сезон

RePack

30

ИГРА 18+

pack

ВАЖНО

!!Акция!!

Alien_RageХит недели

RePack

MK11
pack

Забери бонус

RePack

jed

!!Акция!!

Alien_Rage

RePack

fifa19

RePack

Assassins Creed: Odyssey

RePack

NEED FOR SPEED™ PAYBACK

4 сезон

9 сезон

Бесстыжие 9 сезон

Все сериалы

все сериалы на PB.wtf

RePack

FAR CRY 5
  

Ван Хельсинг / Van Helsing (Стивен Соммерс) [2004 г., Фэнтези, боевик, триллер, детектив, приключения, BDRip720p, Русский дублированный перевод + Оригинальная дорожка ] pb.wtf

Ван Хельсинг через торрент pb.wtf

Размер: 5.3 GB | Добавлен: 6 лет 9 мес. назад | Торрент скачан:114 раз
Скачать  

01-01-2014 04:09 Ван Хельсинг Скачать торрент  

Ван Хельсинг / Van Helsing
Год выпуска: 2004
Страна: США, Чехия
Жанр: Фэнтези, боевик, триллер, детектив, приключения
Продолжительность: 02:11:30
Перевод: Русский дублированный перевод + Оригинальная дорожка
Субтитры: Русские, Английские, Английские (SDH)
Режиссер: Стивен Соммерс
Продюссер: Боб Дюксэй, Сэм Мерсер, Стивен Соммерс
Сценарий: Стивен Соммерс
Бюджет: $160 000 000
Премьера в мире: 3 мая 2004

В ролях: Хью Джекман, Кейт Бекинсейл, Ричард Роксбург, Дэвид Уэнэм, Шулер Хенсли, Елена Анайя, Уилл Кемп, Кевин Дж. О’Коннор
Описание: Глубоко в Карпатах лежит таинственная страна Трансильвания — мир, в котором зло встречается на каждом шагу, мир, в котором опасность оживает с заходом солнца, и где монстры, живущие в глубине человеческих кошмаров, обретают форму. В этот мир попадает легендарный охотник на чудовищ Ван Хельсинг, рождённый на страницах романа «Дракула» Брэма Стокера.В своей непрерывной битве против сил зла и за освобождение мира от порождений ада, Ван Хельсинг, по заданию секретного общества, отправляется в Трансильванию, чтобы скрестить оружие со смертельно опасным, наделённым неведомой силой графом Дракулой. На помощь ему внезапно приходит бесстрашная Анна Валери, поставившая целью избавить свою семью от векового проклятья, наложенного убитым вампиром.
Качество: BDRip720p
Формат: MKV
Видео кодек: H.264
Аудио кодек: AC3
Видео: 4257 Кбит/сек, 1280 x 696 (1.839) at 23.976 fps
Аудио #1: 48 kHz, AC3 Dolby Digital, 3/2 (L,C,R,l,r) + LFE ch, ~448.00 kbps avg [Rus]
Аудио #2: 48 kHz, AC3 Dolby Digital, 3/2 (L,C,R,l,r) + LFE ch, ~640.00 kbps avg [Eng]
D:ФильмыVan_Helsing-Van_Helsing-BDRip_2004_DUB-SVO_ENG_720p.mkv
General
Unique ID : 184278347947321361697701209061037104091 (0x8AA2B805FD5D4107BB5DB13C8C4ADBDB)
Complete name : D:ФильмыVan_Helsing-Van_Helsing-BDRip_2004_DUB-SVO_ENG_720p.mkv
Format : Matroska
Format version : Version 2
File size : 5.30 GiB
Duration : 2h 11mn
Overall bit rate : 5 769 Kbps
Encoded date : UTC 2009-11-22 18:28:46
Writing application : mkvmerge v2.9.7 ('Tenderness') built on Jul 1 2009 18:43:35
Writing library : libebml v0.7.7 + libmatroska v0.8.1
Video #1
ID : 1
Format : AVC
Format/Info : Advanced Video Codec
Format profile : High@L4.1
Format settings, CABAC : Yes
Format settings, ReFrames : 8 frames
Codec ID : V_MPEG4/ISO/AVC
Duration : 2h 11mn
Bit rate : 4 360 Kbps
Width : 1 280 pixels
Height : 696 pixels
Display aspect ratio : 1.85:1
Frame rate mode : Constant
Frame rate : 23.976 fps
Color space : YUV
Chroma subsampling : 4:2:0
Bit depth : 8 bits
Scan type : Progressive
Bits/(Pixel*Frame) : 0.204
Stream size : 3.90 GiB (74%)
Writing library : x264 core 78 r1310 ec46ace
Encoding settings : cabac=1 / ref=8 / deblock=1:-2:-2 / analyse=0x3:0x113 / me=umh / subme=10 / psy=1 / psy_rd=1.1:0.2 / mixed_ref=1 / me_range=32 / chroma_me=1 / trellis=2 / 8x8dct=1 / cqm=0 / deadzone=21,11 / chroma_qp_offset=-3 / threads=3 / nr=0 / decimate=1 / mbaff=0 / constrained_intra=0 / bframes=7 / b_pyramid=0 / b_adapt=2 / b_bias=0 / direct=1 / wpredb=1 / keyint=250 / keyint_min=25 / scenecut=40 / rc_lookahead=40 / rc=2pass / mbtree=1 / bitrate=4360 / ratetol=1.0 / qcomp=0.60 / qpmin=10 / qpmax=51 / qpstep=4 / cplxblur=20.0 / qblur=0.5 / vbv_maxrate=50000 / vbv_bufsize=62500 / ip_ratio=1.40 / aq=1:1.00
Default : Yes
Forced : No
Audio #2
ID : 2
Format : AC-3
Format/Info : Audio Coding 3
Mode extension : CM (complete main)
Format settings, Endianness : Big
Codec ID : A_AC3
Duration : 2h 11mn
Bit rate mode : Constant
Bit rate : 384 Kbps
Channel(s) : 6 channels
Channel positions : Front: L C R, Side: L R, LFE
Sampling rate : 48.0 KHz
Bit depth : 16 bits
Compression mode : Lossy
Stream size : 362 MiB (7%)
Title : DUB
Language : Russian
Default : Yes
Forced : No
Audio #3
ID : 3
Format : AC-3
Format/Info : Audio Coding 3
Mode extension : CM (complete main)
Format settings, Endianness : Big
Codec ID : A_AC3
Duration : 2h 11mn
Bit rate mode : Constant
Bit rate : 384 Kbps
Channel(s) : 6 channels
Channel positions : Front: L C R, Side: L R, LFE
Sampling rate : 48.0 KHz
Bit depth : 16 bits
Compression mode : Lossy
Stream size : 362 MiB (7%)
Title : Gavrilov
Language : Russian
Default : No
Forced : No
Audio #4
ID : 4
Format : AC-3
Format/Info : Audio Coding 3
Mode extension : CM (complete main)
Format settings, Endianness : Big
Codec ID : A_AC3
Duration : 2h 11mn
Bit rate mode : Constant
Bit rate : 640 Kbps
Channel(s) : 6 channels
Channel positions : Front: L C R, Side: L R, LFE
Sampling rate : 48.0 KHz
Bit depth : 16 bits
Compression mode : Lossy
Stream size : 603 MiB (11%)
Language : English
Default : No
Forced : No
Text #5
ID : 5
Format : UTF-8
Codec ID : S_TEXT/UTF8
Codec ID/Info : UTF-8 Plain Text
Language : Russian
Default : Yes
Forced : No
Text #6
ID : 6
Format : UTF-8
Codec ID : S_TEXT/UTF8
Codec ID/Info : UTF-8 Plain Text
Language : English
Default : No
Forced : No

скриншот  скриншот  скриншот  скриншот  скриншот  скриншот  





Ван Хельсинг скачать торрент


pb.wtf



Скачать Ван Хельсинг через торрент http://pic.kartinco.top/images/6/bzcj4.jpg Скачать фильм Ван Хельсинг через торрент бесплантно в хорошем качестве Описание: Глубоко в Карпатах лежит таинственная страна Трансильвания — мир, в котором зло встречается на каждом шагу, мир, в котором ... 9.9 10 14
Info! Золотая раздача, скачанное не засчитывается.
Торрент: Зарегистрирован [2014-01-01 04:09] · скачан: 114 раз
Статус: √ проверено
Размер: 5.3 GB
Как cкачать? Как скачать Ван Хельсинг через торрент | qTorrent

% Раздел Тема Автор DL S | L
Зарубежные сериалы [ 38.2 GB ] Ван Хельсинг / Van Helsing / Сезон: 4 / Серия: 1-13 из 13 [2019 WEB-DL 1080p] MVO [TVShows] bober100 Скачать
1 | 0
T Зарубежные сериалы [ 7.99 GB ] Ван Хельсинг / Van Helsing / Сезон: 4 / Серия: 1-13 из 13 [2019 WEBRip] MVO [Octopus] bober100 Скачать
1 | 0
Зарубежные сериалы [ 21.07 GB ] Ван Хельсинг / Van Helsing / Сезон: 4 / Серия: 1-13 из 13 [2019 WEB-DL 720p] MVO [TVShows] bober100 Скачать
1 | 0
Зарубежные сериалы [ 21.58 GB ] Ван Хельсинг / Van Helsing / Сезон: 4 / Серия: 1-13 из 13 [2019 WEB-DL 720p] MVO [Lostfilm] bober100 Скачать
1 | 0
Зарубежные сериалы [ 2.96 GB ] Ван Хельсинг / Van Helsing / Сезон: 4 / Серия: 1- из 13 [2019 WEB-DL 1080p] [MVO] killermax2013 Скачать
1 | 0
Зарубежные сериалы [ 7.31 GB ] Ван Хельсинг / Van Helsing / Сезон: 3 / Серия: 1-13 из 13 [2018 WEB-DLRip] MVO [Jaskier] bober100 Скачать
1 | 0
Зарубежные сериалы [ 20.83 GB ] Ван Хельсинг / Van Helsing / Сезон: 3 / Серия: 1-13 из 13 [2018 WEB-DL 720p] MVO [Jaskier] bober100 Скачать
1 | 0


Последний раз редактировалось: 4eJLoJ3ek (2014-01-01 12:00), всего редактировалось 2 раз(а)

28-11-2019 20:33  

Отключить всю рекламу на сайте

01-01-2014 05:19 Ван Хельсинг Скачать торрент  

класный фильм!!!!!!!!!!!!!!!pb.wtf



01-01-2014 11:20 Ван Хельсинг Скачать торрент  

01-01-2014 11:34 Ван Хельсинг Скачать торрент  

умершая раздача с автором согласованоpb.wtf



01-01-2014 14:00 Ван Хельсинг Скачать торрент  

Хороший фильм!!!pb.wtf



    Дорогой пользователь! Огромная просьба, поблагодарите релизера, оцените раздачу и оставьте свои комментарий, если Вы скачали Ван Хельсинг через торрент бесплатно! Внесите свою лепту в развитие PiratBit!
    Комментировать посты могут только пользователи прошедшие не сложную регистрацию
    Показать сообщения:    

    Ван Хельсинг через торрент
    Скачать бесплатно Ван Хельсинг
    Ван Хельсинг скачать торрент
    Ван Хельсинг смотреть онлайн
    Cкачать фильм Ван Хельсинг бесплатно
    Ван Хельсинг скачать торрент в хорошем качестве
    Ван Хельсинг смотреть онлайн бесплатно в хорошем качестве


    Вы не можете начинать темы
    Вы не можете отвечать на сообщения
    Вы не можете редактировать свои сообщения
    Вы не можете удалять свои сообщения
    Вы не можете голосовать в опросах
    Вы не можете прикреплять файлы к сообщениям
    Вы можете скачивать файлы