Ссылка на приватное зеркало нашего сайта всего за 1$. Внимание количество ограничено!!!

2 сезон

iTunes

1 сезон

1

iTunes

iTunes

iTunes

1 сезон

RePack

30

ИГРА 18+

pack

ВАЖНО

!!Акция!!

Alien_RageХит недели

RePack

MK11
pack

Забери бонус

RePack

jed

!!Акция!!

Alien_Rage

RePack

fifa19

RePack

Assassins Creed: Odyssey

RePack

NEED FOR SPEED™ PAYBACK

4 сезон

9 сезон

Бесстыжие 9 сезон

Все сериалы

все сериалы на PB.wtf

RePack

FAR CRY 5
  

Взрыв Солнца / Exploding Sun (Майкл Робисан) [2013 г., Фантастика, HDRip (Любительский (одноголосый закадровый)) ] pb.wtf

Взрыв Солнца через торрент pb.wtf

Размер: 1.36 GB | Добавлен: 6 лет 9 мес. назад | Торрент скачан:252 раза
Скачать  

01-01-2014 20:47 Взрыв Солнца Скачать торрент  

Взрыв Солнца / Exploding Sun
Год выпуска: 2013
Страна: Канада
Жанр: Фантастика,
Продолжительность: 02ч 53мин
Перевод: Любительский (одноголосый закадровый) zamez

Режиссер: Майкл Робисан
Продюссер: Ирен Литинский, Christina O'Shea-Daly, Майкл Прупас, ...
Сценарий: Джефф Шечтер
Премьера в мире: 9 февраля 2013,



В ролях: Джулия Ормонд и другие: Дэвид Джеймс Эллиотт, Энтони Лемке, Натали Браун, Милен Робик, Джон МакЛарен, Фрэнк Скорпион, Кэтерин Клилэнд, Роберт Крукс, Кайла Ди Венере.,


Первый в мире коммерческий космический челнок с пассажирами, среди которых находится жена президента, совершает свой первый полет вокруг Луны с возвращением на Землю. Но в результате мощной вспышки на Солнце экипаж корабля теряет контроль над управлением. И начинается неуправляемое движение — курс на Солнце. Опасность становится катастрофической, когда обнаруживается, что событие запуска вызовет большую солнечную бурю, которая может отправить Землю обратно в каменный век, если это вовремя не остановить.


Качество: HDRip
Формат: AVI
Видео кодек: XviD
Аудио кодек: MP3
Видео:988 Kbps 640x352 (16:9) 24.00fps MPEG-4 Visual(Xvid)
Аудио#1: MPEG Audio Layer 3 48000Hz stereo 128kbps


Взрыв Солнца



скриншот   скриншот   скриншот   скриншот   скриншот  





M:VIDEOExploding.Sun.2013.HDRip.avi
General
Complete name : M:VIDEOExploding.Sun.2013.HDRip.avi
Format : AVI
Format/Info : Audio Video Interleave
File size : 1.36 GiB
Duration : 2h 53mn
Overall bit rate : 1 125 Kbps
Writing application : VirtualDubMod 1.5.10.2 (build 2540/release)
Writing library : VirtualDubMod build 2540/release
Video #0
ID : 0
Format : MPEG-4 Visual
Format profile : Advanced Simple@L5
Format settings, BVOP : 2
Format settings, QPel : No
Format settings, GMC : No warppoints
Format settings, Matrix : Default (H.263)
Muxing mode : Packed bitstream
Codec ID : XVID
Codec ID/Hint : XviD
Duration : 2h 53mn
Bit rate : 988 Kbps
Width : 640 pixels
Height : 352 pixels
Display aspect ratio : 16:9
Frame rate : 24.000 fps
Color space : YUV
Chroma subsampling : 4:2:0
Bit depth : 8 bits
Scan type : Progressive
Compression mode : Lossy
Bits/(Pixel*Frame) : 0.183
Stream size : 1.20 GiB (88%)
Writing library : XviD 64
Audio #1
ID : 1
Format : MPEG Audio
Format version : Version 1
Format profile : Layer 3
Mode : Joint stereo
Mode extension : MS Stereo
Codec ID : 55
Codec ID/Hint : MP3
Duration : 2h 53mn
Bit rate mode : Constant
Bit rate : 128 Kbps
Channel(s) : 2 channels
Sampling rate : 48.0 KHz
Compression mode : Lossy
Stream size : 159 MiB (11%)
Alignment : Aligned on interleaves
Interleave, duration : 42 ms (1.00 video frame)
Interleave, preload duration : 504 ms

pb.wtf



Скачать Взрыв Солнца через торрент http://pic.kartinco.top/images/4/zg8b9.jpg Скачать фильм Взрыв Солнца через торрент бесплантно в хорошем качестве В ролях: Джулия Ормонд и другие: Дэвид Джеймс Эллиотт, Энтони Лемке, Натали Браун, Милен Робик, Джон МакЛарен, Фрэнк Скорпион, Кэтерин ... 9.3 10 12
Info! Золотая раздача, скачанное не засчитывается.
Торрент: Зарегистрирован [2014-01-01 20:47] · скачан: 252 раз
Статус: √ проверено
Размер: 1.36 GB
Как cкачать? Как скачать Взрыв Солнца через торрент | qTorrent



Последний раз редактировалось: MrKuzj (2014-01-01 20:57), всего редактировалось 3 раз(а)

28-11-2019 20:33  

Отключить всю рекламу на сайте

01-01-2014 20:53 Взрыв Солнца Скачать торрент  

Треш.Кто такое снимаетpb.wtf



01-01-2014 21:33 Взрыв Солнца Скачать торрент  

На любителя.
Что ж вы хотите от малобюджетного фильма для показов по тв ящику на кабельных сетях да ещё 3-х часовой.
Вот как на этот фильм повелась Джулия Ормонд не понятно(pb.wtf



01-01-2014 21:58 Взрыв Солнца Скачать торрент  

неужто мы застали взрыв солнца))pb.wtf



01-01-2014 22:45 Взрыв Солнца Скачать торрент  

Цитата:

Перевод: Любительский (одноголосый закадровый)

авторство озвучки не забываем указыватьpb.wtf



02-01-2014 07:12 Взрыв Солнца Скачать торрент  

Лучше любой старый фильм посмотреть 10 раз,чем это no no nopb.wtf



02-01-2014 08:45 Взрыв Солнца Скачать торрент  

редкостный кал!!! :shoot2:pb.wtf



02-01-2014 12:20 Взрыв Солнца Скачать торрент  

subcolonel писал(а):

редкостный кал!!! :shoot2:

азилумpb.wtf



    Дорогой пользователь! Огромная просьба, поблагодарите релизера, оцените раздачу и оставьте свои комментарий, если Вы скачали Взрыв Солнца через торрент бесплатно! Внесите свою лепту в развитие PiratBit!
    Комментировать посты могут только пользователи прошедшие не сложную регистрацию
    Показать сообщения:    

    Взрыв Солнца через торрент
    Скачать бесплатно Взрыв Солнца
    Взрыв Солнца скачать торрент
    Взрыв Солнца смотреть онлайн
    Cкачать фильм Взрыв Солнца бесплатно
    Взрыв Солнца скачать торрент в хорошем качестве
    Взрыв Солнца смотреть онлайн бесплатно в хорошем качестве


    Вы не можете начинать темы
    Вы не можете отвечать на сообщения
    Вы не можете редактировать свои сообщения
    Вы не можете удалять свои сообщения
    Вы не можете голосовать в опросах
    Вы не можете прикреплять файлы к сообщениям
    Вы можете скачивать файлы