Ссылка на приватное зеркало нашего сайта всего за 1$. Внимание количество ограничено!!!

2 сезон

iTunes

1 сезон

1

2 сезон

2 сезон

iTunes

1 сезон

RePack

30

Новинка

ВАЖНО

ИГРА 18+

pack

RePack

MK11
pack

Забери бонус

RePack

jed

!!Акция!!

Alien_Rage

RePack

fifa19

RePack

Assassins Creed: Odyssey

RePack

NEED FOR SPEED™ PAYBACK

4 сезон

9 сезон

Бесстыжие 9 сезон

Все сериалы

все сериалы на PB.wtf

RePack

FAR CRY 5
  

Слепой / À l'aveugle (Ксавьер Палю) [2012 г., боевик, триллер, WEB-DLRip 720p, Профессиональный двухголосый] |iTunes Russia| pb.wtf

Слепой через торрент pb.wtf

Размер: 2.84 GB | Добавлен: 6 лет 10 мес. назад | Торрент скачан:212 раз
Скачать  

02-01-2014 12:03 Слепой Скачать торрент  

Слепой / À l'aveugle

Год выпуска: 2012
Страна: Франция
Жанр: боевик, триллер
Продолжительность: 01:29:37
Перевод: Профессиональный двухголосый

Режиссер: Ксавьер Палю
Продюссер: Люк Бессон
Сценарий: Эрик Беснард, Люк Бессон
Премьера в мире: 7 марта 2012

IMDB 5.50 (586)


В ролях: Жак Гамблен, Ламбер Вильсон, Рафаэль Агоге, Арно Коссон, Антуан Леваннье, Фридерик Контожом, Давид Капелле, Мари Винсент, Николас Грэндхомм, Натали Винье,

Описание: Изувеченный труп молодой девушки найден у нее дома. Ни взлома, ни свидетелей, все выглядит идеальным преступлением. Расследование поручается капитану Лассаллю, опытному одинокому полицейскому, разбитому недавней смертью жены. Схожие по характеру жестокие убийства продолжают происходить, и в связи с ними Лассалля интригует личность слепого Нарвика. Но у него есть алиби, а его немощь, казалось бы, ограждает от подозрений. Странная дуэль наподобие игры в шахматы начинается между двумя людьми.

Качество: WEB-DLRip 720p
Формат: MKV
Видео кодек: AVC
Аудио кодек: AC3
Видео: 1280@960x720 at 25.000 fps, MPEG-4 AVC, ~4000 kbps avg, 0.235
Аудио: Russian: 48 kHz, AC3, 3/2 (L,C,R,l,r) + LFE ch, ~384.00 kbps avg |Двухголосый закадровый, iTunes Russia|
Format : Matroska
Format version : Version 2
File size : 2.84 GiB
Duration : 1h 29mn
Overall bit rate : 4 535 Kbps
Movie name : Blind Man / À l'aveugle (2012)
Encoded date : UTC 2014-01-01 20:45:19
Writing application : mkvmerge v3.4.0 ('Rapunzel') built on May 15 2010 09:38:20
Writing library : libebml v0.8.0 + libmatroska v0.9.0

Video
ID : 1
Format : AVC
Format/Info : Advanced Video Codec
Format profile : Main@L3.1
Format settings, CABAC : No
Format settings, ReFrames : 2 frames
Codec ID : V_MPEG4/ISO/AVC
Duration : 1h 29mn
Bit rate : 4 061 Kbps
Width : 960 pixels
Height : 720 pixels
Display aspect ratio : 16:9
Frame rate mode : Constant
Frame rate : 25.000 fps
Color space : YUV
Chroma subsampling : 4:2:0
Bit depth : 8 bits
Scan type : Progressive
Bits/(Pixel*Frame) : 0.235
Stream size : 2.54 GiB (90%)
Title : Blind Man / À l'aveugle (2012)
Language : French
Default : Yes
Forced : No
Color primaries : BT.709
Transfer characteristics : BT.709
Matrix coefficients : BT.709

Audio
ID : 2
Format : AC-3
Format/Info : Audio Coding 3
Mode extension : CM (complete main)
Format settings, Endianness : Big
Codec ID : A_AC3
Duration : 1h 29mn
Bit rate mode : Constant
Bit rate : 384 Kbps
Channel count : 6 channels
Channel positions : Front: L C R, Side: L R, LFE
Sampling rate : 48.0 KHz
Bit depth : 16 bits
Compression mode : Lossy
Stream size : 246 MiB (8%)
Title : AC3 5.1 @ 384 kbps - MVO, iTunes
Language : Russian
Default : Yes
Forced : No

Menu
00:00:00.000 : fr:Глава 1
00:08:33.000 : fr:Глава 2
00:13:34.000 : fr:Глава 3
00:18:37.000 : fr:Глава 4
00:23:39.000 : fr:Глава 5
00:28:39.000 : fr:Глава 6
00:33:46.000 : fr:Глава 7
00:38:46.000 : fr:Глава 8
00:43:47.000 : fr:Глава 9
00:48:54.000 : fr:Глава 10
00:53:56.000 : fr:Глава 11
00:58:57.000 : fr:Глава 12
01:03:59.000 : fr:Глава 13
01:09:08.000 : fr:Глава 14
01:14:10.000 : fr:Глава 15
01:19:13.000 : fr:Глава 16
pb.wtf



Скачать Слепой через торрент http://i5.imageban.ru/out/2014/01/02/34a14d67f83e1f43e2927d4b78dc0947.png Скачать фильм Слепой через торрент бесплантно в хорошем качестве Описание: Изувеченный труп молодой девушки найден у нее дома. Ни взлома, ни свидетелей, все выглядит идеальным преступлением. Расследование ... 9.9 10 14
Info! Золотая раздача, скачанное не засчитывается.
Торрент: Зарегистрирован [2014-01-02 12:03] · скачан: 212 раз
Статус: √ проверено
Размер: 2.84 GB
Как cкачать? Как скачать Слепой через торрент | qTorrent

28-11-2019 20:33  

Отключить всю рекламу на сайте

    Дорогой пользователь! Огромная просьба, поблагодарите релизера, оцените раздачу и оставьте свои комментарий, если Вы скачали Слепой через торрент бесплатно! Внесите свою лепту в развитие PiratBit!
    Комментировать посты могут только пользователи прошедшие не сложную регистрацию
    Показать сообщения:    

    Слепой через торрент
    Скачать бесплатно Слепой
    Слепой скачать торрент
    Слепой смотреть онлайн
    Cкачать фильм Слепой бесплатно
    Слепой скачать торрент в хорошем качестве
    Слепой смотреть онлайн бесплатно в хорошем качестве


    Вы не можете начинать темы
    Вы не можете отвечать на сообщения
    Вы не можете редактировать свои сообщения
    Вы не можете удалять свои сообщения
    Вы не можете голосовать в опросах
    Вы не можете прикреплять файлы к сообщениям
    Вы можете скачивать файлы