2 сезон

iTunes

MVO

1

2 сезон

iTunes

iTunes

1 сезон

RePack

30

Ultimate

ВАЖНО

ИГРА 18+

pack

RePack

MK11
pack

Легкие деньги

RePack

jed

RePack

fifa19

RePack

RDR2

RePack

NEED FOR SPEED™ PAYBACK

4 сезон

9 сезон

Бесстыжие 9 сезон

Все сериалы

все сериалы на PB.wtf

RePack

FAR CRY 5

Anonymous, добрый вечер, мы не успеваем собрать деньги на оплату серверов за декабрь и январь, помогите нам пожалуйста в это трудное время. В качестве благодарности мы отключим Вам всю рекламу на сайте (укажите свой ник в строку Ваше имя)!

×
  
Magnet ссылка

Проклятие Чаки / Curse of Chucky (Дон Манчини / Don Mancini) [2013, США, ужасы, триллер, BDRip-AVC] Dub + Sub (Rus, Eng) pb.wtf

Проклятие Чаки через торрент pb.wtf

Раздают: 1 [ 0 KB/s ]
Размер: 1.45 GB | Добавлен: 7 лет назад | Торрент скачан:229 раз
Скачать  

02-01-2014 12:14 Проклятие Чаки Скачать торрент  

Проклятие Чаки
Curse of Chucky

«Be afraid. Be effing afraid»



Страна: США
Студия: Universal Home Entertainment, Universal Pictures
Жанр: ужасы, триллер
Год выпуска: 2013
Продолжительность: 01:36:41

Перевод: Профессиональный (полное дублирование) [Лицензия]
Cубтитры: Русские, английские

Режиссер:
Дон Манчини / Don Mancini

В ролях:
Брэд Дуриф, Даниэль Бисутти, Эй Мартинез, Фиона Дуриф, Бреннан Эллиотт, Алекс Винсент, Шэнтал Куэснел, Мейтленд МакКоннелл, Али Татарин, Кэлли Берард и др.

Описание:
В центре событий окажется молодая женщина по имени Ника тяжело переживающая самоубийство матери. Ее старшая сестра Барбара — властная, волевая женщина, — приезжает вместе с семьей к Нике, чтобы поддержать ее и уладить дела матери. Пока сестры заняты делом, малолетняя дочь Барбары находит в доме посылку пришедшую от неизвестного адресата, а в ней рыжеволосую куклу Чаки. Вскоре происходит череда кровавых убийств. Ника начинает подозревать, что в убийствах неким образом замешана кукла. По ходу дела выясняется, что у Чаки во всем этом есть особый интерес. Он решил закончить работу которую начал 20 лет назад, и в этот раз он намерен довести дело до кровавого и шокирующего финала.


Релиз:

Автор рипа: S.T.A.L.K.E.R.2 (aka Stalker oK)

Сэмпл: multi-up

Качество видео: BDRip-AVC [исходник BD-Remux]
Формат видео: MKV
Видео кодек: AVC
Аудио кодек: AC3
Видео: 1766 Кбит/сек, 960*540 (16:9), в 23,976 кадр/сек, AVC
Аудио: Russian, 384 Кбит/сек, 48,0 КГц, 16 бит, 6 канала(ов), AC-3
Общее
Уникальный идентификатор : 204059485026496009908626202916433666421 (0x99846D613B205925B20364D761A7A175)
Полное имя : H:Проклятие чакиProkljatie_Chaki_2013_BDRip_AVC_Dub__stalkerok_new-team.mkv
Формат : Matroska
Размер файла : 1,45 Гбайт
Продолжительность : 1 ч. 36 м.
Общий поток : 2152 Кбит/сек
Название фильма : Curse of Chucky 2013 (New-Team) (Rip by Stalker oK)
Дата кодирования : UTC 2014-01-02 11:57:55
Программа кодирования : mkvmerge v6.2.0 ('Promised Land') built on Apr 28 2013 12:22:01
Библиотека кодирования : libebml v1.3.0 + libmatroska v1.4.0

Видео
Идентификатор : 1
Формат : AVC
Формат/Информация : Advanced Video Codec
Профиль формата : High@L4.1
Параметр CABAC формата : Да
Параметр ReFrames формата : 11 кадры
Идентификатор кодека : V_MPEG4/ISO/AVC
Продолжительность : 1 ч. 36 м.
Битрейт : 1766 Кбит/сек
Ширина : 960 пикс.
Высота : 540 пикс.
Соотношение сторон : 16:9
Частота кадров : 23,976 кадр/сек
Цветовое пространство : YUV
Подвыборка цветности : 4:2:0
Битовая глубина : 8 бит
Тип развёртки : Прогрессивная
Бит/(Пиксели*Кадры) : 0.142
Размер потока : 1,16 Гбайт (80%)
Библиотека кодирования : x264 core 138 r2358 9e941d1
Настройки программы : cabac=1 / ref=11 / deblock=1:-2:-2 / analyse=0x3:0x133 / me=umh / subme=11 / psy=1 / psy_rd=1.03:0.10 / mixed_ref=1 / me_range=48 / chroma_me=1 / trellis=2 / 8x8dct=1 / cqm=0 / deadzone=21,11 / fast_pskip=0 / chroma_qp_offset=-3 / threads=6 / lookahead_threads=1 / sliced_threads=0 / nr=0 / decimate=0 / interlaced=0 / bluray_compat=0 / constrained_intra=0 / bframes=12 / b_pyramid=2 / b_adapt=2 / b_bias=0 / direct=3 / weightb=1 / open_gop=0 / weightp=2 / keyint=240 / keyint_min=23 / scenecut=40 / intra_refresh=0 / rc_lookahead=80 / rc=2pass / mbtree=1 / bitrate=1766 / ratetol=1.0 / qcomp=0.65 / qpmin=0 / qpmax=69 / qpstep=4 / cplxblur=20.0 / qblur=0.5 / vbv_maxrate=25000 / vbv_bufsize=30000 / nal_hrd=none / ip_ratio=1.40 / aq=1:1.00

Аудио
Идентификатор : 2
Формат : AC-3
Формат/Информация : Audio Coding 3
Расширение режима : CM (complete main)
Идентификатор кодека : A_AC3
Продолжительность : 1 ч. 36 м.
Вид битрейта : Постоянный
Битрейт : 384 Кбит/сек
Канал(ы) : 6 канала(ов)
Расположение каналов : Front: L C R, Side: L R, LFE
Частота : 48,0 КГц
Битовая глубина : 16 бит
Метод сжатия : С потерями
Размер потока : 266 Мбайт (18%)
Заголовок : AC3 5.1 @ 384 kbps
Язык : Russian

Текст #1
Идентификатор : 3
Формат : UTF-8
Идентификатор кодека : S_TEXT/UTF8
Идентификатор кодека/Информация : UTF-8 Plain Text
Язык : Russian

Текст #2
Идентификатор : 4
Формат : UTF-8
Идентификатор кодека : S_TEXT/UTF8
Идентификатор кодека/Информация : UTF-8 Plain Text
Язык : English

Меню
00:00:00.000 : en:00:00:00.000
00:04:45.410 : en:00:04:45.410
00:08:48.486 : en:00:08:48.486
00:15:30.680 : en:00:15:30.680
00:20:24.306 : en:00:20:24.306
00:27:34.653 : en:00:27:34.653
00:32:42.502 : en:00:32:42.502
00:37:47.140 : en:00:37:47.140
00:43:51.671 : en:00:43:51.671
00:46:54.186 : en:00:46:54.186
00:51:29.336 : en:00:51:29.336
00:56:46.903 : en:00:56:46.903
01:01:29.686 : en:01:01:29.686
01:05:34.347 : en:01:05:34.347
01:09:09.270 : en:01:09:09.270
01:13:41.250 : en:01:13:41.250
01:20:23.235 : en:01:20:23.235
01:24:53.505 : en:01:24:53.505
01:28:31.765 : en:01:28:31.765
01:31:47.460 : en:01:31:47.460
pb.wtf



Скачать Проклятие Чаки через торрент http://i4.imageban.ru/out/2013/11/20/23afd37ba301cf29b16658cd2201c4ed.png Скачать фильм Проклятие Чаки через торрент бесплантно в хорошем качестве Описание:В центре событий окажется молодая женщина по имени Ника тяжело переживающая самоубийство матери. Ее старшая сестра Барбара — ... 9.4 10 5
Info! Золотая раздача, скачанное не засчитывается.
Торрент: Зарегистрирован [2014-01-02 12:14] · скачан: 229 раз
Статус: √ проверено
Размер: 1.45 GB
Как cкачать? Как скачать Проклятие Чаки через торрент | UTorrent

% Раздел Тема Автор DL S | L
Фильмы 2013 [DVDrip, WEB-DLRip, HDrip] [ 2.19 GB ] Проклятие Чаки / Curse of Chucky [2013 BDRip-AVC] Dub + Eng + Sub sokol_ok Скачать
2 | 0
Фильмы 2013 [DVDrip, WEB-DLRip, HDrip] [ 1.37 GB ] Проклятие Чаки / Curse of Chucky / UNRATED [2013 HDRip ] MihailHD Скачать
1 | 0
Фильмы (Blu-ray, BD-Remux, HDDVD) [ 23.58 GB ] Проклятие Чаки / Curse of Chucky [2013 BD-Remux ] [UNRATED] Бумер Скачать
1 | 0
Фильмы 2013 [DVDrip, WEB-DLRip, HDrip] [ 1.46 GB ] Проклятие Чаки / Curse of Chucky [2013 HDRip [BaibaKo] [UNRATED] Ворон Скачать
1 | 0
Фильмы [HD 720p, 1080p] (Хороший звук DUB, MVO) [ 8.93 GB ] Проклятие Чаки / Curse of Chucky [2013 BDRip 1080p ]MVO[BaibaKo]+DVO [UNRATED] Ворон Скачать
1 | 0

28-11-2019 20:33  

Отключить всю рекламу на сайте

    Дорогой пользователь! Огромная просьба, поблагодарите релизера, оцените раздачу и оставьте свои комментарий, если Вы скачали Проклятие Чаки через торрент бесплатно! Внесите свою лепту в развитие PiratBit!
    Комментировать посты могут только пользователи прошедшие не сложную регистрацию
    Показать сообщения:    

    Проклятие Чаки через торрент
    Скачать бесплатно Проклятие Чаки
    Проклятие Чаки скачать торрент
    Проклятие Чаки смотреть онлайн
    Cкачать фильм Проклятие Чаки бесплатно
    Проклятие Чаки скачать торрент в хорошем качестве
    Проклятие Чаки смотреть онлайн бесплатно в хорошем качестве


    Вы не можете начинать темы
    Вы не можете отвечать на сообщения
    Вы не можете редактировать свои сообщения
    Вы не можете удалять свои сообщения
    Вы не можете голосовать в опросах
    Вы не можете прикреплять файлы к сообщениям
    Вы можете скачивать файлы