Ссылка на приватное зеркало нашего сайта всего за 1$. Внимание количество ограничено!!!

2 сезон

iTunes

1 сезон

1

2 сезон

2 сезон

iTunes

1 сезон

RePack

30

Новинка

ВАЖНО

ИГРА 18+

pack

RePack

MK11
pack

Забери бонус

RePack

jed

!!Акция!!

Alien_Rage

RePack

fifa19

RePack

Assassins Creed: Odyssey

RePack

NEED FOR SPEED™ PAYBACK

4 сезон

9 сезон

Бесстыжие 9 сезон

Все сериалы

все сериалы на PB.wtf

RePack

FAR CRY 5
  

Вне подозрений / Above Suspicion / Сезон: 01 / Серии: 1-2 из 2 (Кристофер Менол) [2009, детектив, DVDRip] [DVO] (студия "Райдо") pb.wtf

Вне подозрений через торрент pb.wtf

Размер: 1.07 GB | Добавлен: 6 лет 10 мес. назад | Торрент скачан:44 раза
Скачать  

03-01-2014 12:29 Вне подозрений Скачать торрент  

Вне подозрений / Above Suspicion (Сезон 01, серии 1-2 из 2)
Год выпуска: 2009
Страна: Великобритания
Жанр: детектив
Продолжительность: 1 х - 01:08:26, 2 х - 00:46:16
Перевод: Любительский (двухголосый, закадровый) [студия "Райдо"]
Озвучено по субтитрам Нотабеноид.
Русские субтитры: нет
Субтитры: отсутствуют

Режиссёр: Кристофер Менол

В ролях: Келли Райлли, Кьяран Хайндс, Джейсон Дурр, Шон Дингуолл, Даниэль Кальтаджироне, Мишель Холмс, Аманда Лоуренс, Джон Сэвидент, Мартин Хердман, Надя Кэмерон-Блэйки

Описание: Британский сериал по бестселлеру Линды Лаплант, криминальная драма о молодом и амбициозном офицере полиции Анне Трэвис, которая быстро продвигается по служебной лестнице и работает буквально на грани, чтобы добиться того же успеха как и ее отец. Ее первым делом становится поиски жестокого серийного убийцы...



Качество: DVDRip
Формат: AVI
Видео кодек: XviD
Аудио кодек: MP3
Видео: XviD, 640x352, 1 288 kbps, 16:9, 25.0 fps, 0.229 bit/pixel
Аудио: MP3 , 48.0 KHz, 2ch, 192 kbps


E:КиноAbove Suspicion 01x01_1.avi
General
Complete name : E:КиноAbove Suspicion 01x01_1.avi
Format : AVI
Format/Info : Audio Video Interleave
File size : 731 MiB
Duration : 1h 8mn
Overall bit rate : 1 493 Kbps
Writing application : Lavf54.3.100
Video #0
ID : 0
Format : MPEG-4 Visual
Format profile : Advanced Simple@L5
Format settings, BVOP : 2
Format settings, QPel : No
Format settings, GMC : No warppoints
Format settings, Matrix : Default (H.263)
Muxing mode : Packed bitstream
Codec ID : XVID
Codec ID/Hint : XviD
Duration : 1h 8mn
Bit rate : 1 288 Kbps
Width : 640 pixels
Height : 352 pixels
Display aspect ratio : 16:9
Frame rate : 25.000 fps
Color space : YUV
Chroma subsampling : 4:2:0
Bit depth : 8 bits
Scan type : Progressive
Compression mode : Lossy
Bits/(Pixel*Frame) : 0.229
Stream size : 631 MiB (86%)
Writing library : XviD 1.2.1 (UTC 2008-12-04)
Audio #1
ID : 1
Format : MPEG Audio
Format version : Version 1
Format profile : Layer 3
Codec ID : 55
Codec ID/Hint : MP3
Duration : 1h 8mn
Bit rate mode : Constant
Bit rate : 192 Kbps
Channel(s) : 2 channels
Sampling rate : 48.0 KHz
Compression mode : Lossy
Stream size : 94.0 MiB (13%)
Alignment : Aligned on interleaves
Interleave, duration : 24 ms (0.60 video frame)
Interleave, preload duration : 24 ms
pb.wtf



Скачать Вне подозрений через торрент http://i57.fastpic.ru/big/2014/0103/fc/bcc0c66f3fe838bc12c01fc6f90b02fc.jpg Скачать фильм Вне подозрений через торрент бесплантно в хорошем качестве Описание: Британский сериал по бестселлеру Линды Лаплант, криминальная драма о молодом и амбициозном офицере полиции Анне Трэвис, которая ... 10 10 7
Info! Золотая раздача, скачанное не засчитывается.
Торрент: Зарегистрирован [2014-01-03 12:29] · скачан: 44 раз
Статус: √ проверено
Размер: 1.07 GB
Как cкачать? Как скачать Вне подозрений через торрент | qTorrent

% Раздел Тема Автор DL S | L
Зарубежные сериалы [ 1.08 GB ] Вне подозрений-2: Красный Георгин / Above Suspicion-2: The Red Dahlia / Сезон: 02 / Серии: 1-3 из 3 [2010 HDTVRip] [DVO] killermax2013 Скачать
1 | 0


Последний раз редактировалось: killermax2013 (2014-01-03 12:50), всего редактировалось 1 раз

28-11-2019 20:33  

Отключить всю рекламу на сайте

04-01-2014 09:34 Вне подозрений Скачать торрент  

    Дорогой пользователь! Огромная просьба, поблагодарите релизера, оцените раздачу и оставьте свои комментарий, если Вы скачали Вне подозрений через торрент бесплатно! Внесите свою лепту в развитие PiratBit!
    Комментировать посты могут только пользователи прошедшие не сложную регистрацию
    Показать сообщения:    

    Вне подозрений через торрент
    Скачать бесплатно Вне подозрений
    Вне подозрений скачать торрент
    Вне подозрений смотреть онлайн
    Cкачать фильм Вне подозрений бесплатно
    Вне подозрений скачать торрент в хорошем качестве
    Вне подозрений смотреть онлайн бесплатно в хорошем качестве


    Вы не можете начинать темы
    Вы не можете отвечать на сообщения
    Вы не можете редактировать свои сообщения
    Вы не можете удалять свои сообщения
    Вы не можете голосовать в опросах
    Вы не можете прикреплять файлы к сообщениям
    Вы можете скачивать файлы