Ссылка на приватное зеркало нашего сайта всего за 1$. Внимание количество ограничено!!!

2 сезон

iTunes

1 сезон

1

iTunes

iTunes

iTunes

1 сезон

RePack

30

ИГРА 18+

pack

ВАЖНО

!!Акция!!

Alien_RageХит недели

RePack

MK11
pack

Забери бонус

RePack

jed

!!Акция!!

Alien_Rage

RePack

fifa19

RePack

Assassins Creed: Odyssey

RePack

NEED FOR SPEED™ PAYBACK

4 сезон

9 сезон

Бесстыжие 9 сезон

Все сериалы

все сериалы на PB.wtf

RePack

FAR CRY 5
  

Санаторий / Sanatoriy (Брайан Ортиз, Брайан Рамирез, Керри Вальдеррама) [2013 г., триллер, WEB-DLRip, Профессиональный многоголосый] pb.wtf

Санаторий через торрент pb.wtf

Размер: 1.37 GB | Добавлен: 6 лет 9 мес. назад | Торрент скачан:151 раз
Скачать  

03-01-2014 13:50 Санаторий Скачать торрент  

Санаторий / Sanatoriy
Год выпуска: 2013
Страна: США
Жанр: триллер,
Продолжительность: 01:52:25
Перевод: Профессиональный многоголосый

Режиссер: Брайан Ортиз Брайан Рамирез Керри Вальдеррама



В ролях: Малкольм МакДауэлл, Лу Даймонд Филлипс, Джон Гловер, Роберт Инглунд, Дэвид Мазоуз, Лейси Чаберт, Крис Малки, Майра Лил, Нова Кларк, Брант Бамперс,

Описание: Перед нами антология, действие которой разворачивается в психиатрической клинике. Каждый эпизод начинается с вступительного слова доктора Стенсона, лечащего врача, который комментирует нового пациента и рассказывает его историю.

Качество: WEB-DLRip
Формат: AVI
Видео кодек: XviD
Аудио кодек: AC3
Видео: 720x360 (2.00:1), 23.976 fps, XviD build 50 ~1293 kbps avg, 0.21 bit/pixe
Аудио: 48 kHz, AC3 Dolby Digital, 3/2 (L,C,R,l,r) + LFE ch, ~448 kbps

скриншот   скриншот   скриншот   скриншот   скриншот  

Общее
Полное имя : G:киноSanatoriy.2013.P.WEB-DLRip.1400Mb.avi
Формат : AVI
Формат/Информация : Audio Video Interleave
Размер файла : 1,37 Гбайт
Продолжительность : 1 ч. 52 м.
Общий поток : 1751 Кбит/сек
Название фильма : Sanatoriy.2013.P.WEB-DLRip.1400Mb.avi
Режиссёр : Rip by coc900
Программа кодирования : VirtualDubMod 1.5.10.3 | www.virtualdub-fr.org || (build 2550/release)

Видео
Идентификатор : 0
Формат : MPEG-4 Visual
Профиль формата : Advanced Simple@L5
Параметр BVOP формата : 2
Параметр QPel формата : Нет
Параметр GMC формата : Без точки перехода
Параметр матрицы формата : Default (H.263)
Идентификатор кодека : XVID
Идентификатор кодека/Подсказка : XviD
Продолжительность : 1 ч. 52 м.
Битрейт : 1294 Кбит/сек
Ширина : 720 пикс.
Высота : 360 пикс.
Соотношение сторон : 2,000
Частота кадров : 23,976 кадр/сек
Цветовое пространство : YUV
Подвыборка цветности : 4:2:0
Битовая глубина : 8 бит
Тип развёртки : Прогрессивная
Метод сжатия : С потерями
Бит/(Пиксели*Кадры) : 0.208
Размер потока : 1,02 Гбайт (74%)
Библиотека кодирования : XviD 1.2.1 (UTC 2008-12-04)

Аудио
Идентификатор : 1
Формат : AC-3
Формат/Информация : Audio Coding 3
Расширение режима : CM (complete main)
Идентификатор кодека : 2000
Продолжительность : 1 ч. 52 м.
Вид битрейта : Постоянный
Битрейт : 448 Кбит/сек
Канал(ы) : 6 канала(ов)
Расположение каналов : Front: L C R, Side: L R, LFE
Частота : 48,0 КГц
Битовая глубина : 16 бит
Метод сжатия : С потерями
Размер потока : 360 Мбайт (26%)
Выравнивание : Разделение по промежуткам
Продолжительность промежутка : 42 мс. (1,00 видеокадр)
Время предзагрузки промежутка : 500 ms

pb.wtf



Скачать Санаторий через торрент http://pic.kartinco.top/images/6/a2vxh.jpg Скачать фильм Санаторий через торрент бесплантно в хорошем качестве Описание: Перед нами антология, действие которой разворачивается в психиатрической клинике. Каждый эпизод начинается с вступительного слова ... 10 10 12
Info! Золотая раздача, скачанное не засчитывается.
Торрент: Зарегистрирован [2014-01-03 13:50] · скачан: 151 раз
Статус: √ проверено
Размер: 1.37 GB
Как cкачать? Как скачать Санаторий через торрент | qTorrent

28-11-2019 20:33  

Отключить всю рекламу на сайте

    Дорогой пользователь! Огромная просьба, поблагодарите релизера, оцените раздачу и оставьте свои комментарий, если Вы скачали Санаторий через торрент бесплатно! Внесите свою лепту в развитие PiratBit!
    Комментировать посты могут только пользователи прошедшие не сложную регистрацию
    Показать сообщения:    

    Санаторий через торрент
    Скачать бесплатно Санаторий
    Санаторий скачать торрент
    Санаторий смотреть онлайн
    Cкачать фильм Санаторий бесплатно
    Санаторий скачать торрент в хорошем качестве
    Санаторий смотреть онлайн бесплатно в хорошем качестве


    Вы не можете начинать темы
    Вы не можете отвечать на сообщения
    Вы не можете редактировать свои сообщения
    Вы не можете удалять свои сообщения
    Вы не можете голосовать в опросах
    Вы не можете прикреплять файлы к сообщениям
    Вы можете скачивать файлы