1 сезон

1 сезон

iTunes

1

КиноПоиск HD

Кинопоиск HD

iTunes

13

1 сезон

RePack

30

Новинка

ВАЖНО

ИГРА 18+

pack

RePack

MK11
pack

Легкие деньги

RePack

jed

RePack

fifa19

RePack

RDR2

RePack

NEED FOR SPEED™ PAYBACK

4 сезон

9 сезон

Бесстыжие 9 сезон

Все сериалы

все сериалы на PB.wtf

RePack

FAR CRY 5
  
Magnet ссылка

Тормоз / Не фартовый / The Cooler (Уэйн Крэймер / Wayne Kramer) [2003, азартная драма, криминал, HDTVRip] [VO] (Дмитрий Есарев) + [MVO] pb.wtf

Тормоз через торрент pb.wtf

Размер: 2.06 GB | Добавлен: 7 лет 3 мес. назад | Торрент скачан:119 раз
Скачать  

04-01-2014 09:07 Тормоз Скачать торрент  

Тормоз / Не фартовый / The Cooler«Love ...you have to play to win»
Год выпуска: 2003
Страна: США
Жанр: азартная драма, криминал
Продолжительность: 01:42:19
Перевод: Одноголосный (закадровый) [Дмитрий Есарев] (не нормативная лексика)
Перевод 2: Профессиональный (многоголосый закадровый)
Cубтитры: русские
Оригинальная аудиодорожка: английский

Режиссер: Уэйн Крэймер / Wayne Kramer

В ролях: Уильям Х. Мэйси, Алек Болдуин, Мария Белло, Шон Хэтэси, Рон Ливингстон, Пол Сорвино, Эстелла Уоррен, Артур Дж. Наскарелла, М.С. Гэйни, Эллен Грин

Описание: Всю жизнь Берни не везло. Причем до такой степени, одно из казино Лас-Вегаса наняло его работать «тормозом», распространявшим свою «ауру неудачника» на самых везучих клиентов. А так как Берни задолжал казино огромную сумму, он прикован к нему крепче, чем стальными цепями.
Знакомство с «приносящей удачу» официанткой Натали перерастает в роман и избавляет его от рокового невезения. Почти выплатив свой долг, Берни собирается покинуть Лас-Вегас вместе с возлюбленной. Но управляющий казино Шелли и его хозяева из мафии не собираются расставаться с таким ценным кадром…





Качество видео: HDTVRip
Формат: MKV
Видео кодек: h.264
Аудио кодек: AC3
Видео: 1597 Кбит/сек, 960*400 (2,40:1), 23,976 Кадра/сек, AVC
Аудио: (одноголосый закадровый) 448 Кбит/сек, 48,0 КГц, 16 бит, 6 каналов, АС-3
Аудио 2: (многоголосый закадровый) 48 kHz, AC3 Dolby Digital, 3/2 (L,C,R,l,r) + LFE ch, ~448.00 kbps avg
Аудио 3: original 48 kHz, AC3 Dolby Digital, 3/2 (L,C,R,l,r) + LFE ch, ~384.00 kbps avg
Формат субтитров: softsub (SRT)
Сведение дорожки с одноголосым переводом и рип - Perevodman. Многоголосая озвучка, оригинальная дорожка и субтитры взяты с раздачи лорди74
Общее
Уникальный идентификатор : 177813108820470081141609908559680517865 (0x85C58F1FBF9A9C27963DE82ADDEE36E9)
Полное имя : E:МОНТАЖНефартовыйНЕФАРТОВЫЙ.mkv
Формат : Matroska
Версия формата : Version 4 / Version 2
Размер файла : 2,06 Гбайт
Продолжительность : 1 ч. 42 м.
Режим общего битрейта : Переменный
Общий поток : 2878 Кбит/сек
Название фильма : Релиз Переулка Переводмана
Дата кодирования : UTC 2013-07-04 12:13:40
Программа кодирования : mkvmerge v6.0.0 ('Coming Up For Air') built on Jan 20 2013 09:52:00
Библиотека кодирования : libebml v1.3.0 + libmatroska v1.4.0
Видео
Идентификатор : 1
Формат : AVC
Формат/Информация : Advanced Video Codec
Профиль формата : High@L4.1
Параметр CABAC формата : Да
Параметр ReFrames формата : 16 кадров
Идентификатор кодека : V_MPEG4/ISO/AVC
Продолжительность : 1 ч. 42 м.
Вид битрейта : Переменный
Битрейт : 1597 Кбит/сек
Максимальный битрейт : 50,0 Мбит/сек
Ширина : 960 пикселей
Высота : 400 пикселей
Соотношение сторон : 2,40:1
Режим частоты кадров : Постоянный
Частота кадров : 23,976 кадра/сек
Цветовое пространство : YUV
Субдискретизация насыщенности : 4:2:0
Битовая глубина : 8 бит
Тип развёртки : Прогрессивная
Бит/(Пиксели*Кадры) : 0.173
Размер потока : 1,10 Гбайт (54%)
Заголовок : Рип от Переводмана
Библиотека кодирования : x264 core 133 r2334 a3ac64b
Настройки программы : cabac=1 / ref=16 / deblock=1:-3:-3 / analyse=0x3:0x133 / me=umh / subme=10 / psy=1 / psy_rd=1.00:0.00 / mixed_ref=1 / me_range=32 / chroma_me=1 / trellis=2 / 8x8dct=1 / cqm=0 / deadzone=21,11 / fast_pskip=0 / chroma_qp_offset=-2 / threads=6 / lookahead_threads=1 / sliced_threads=0 / nr=0 / decimate=0 / interlaced=0 / bluray_compat=0 / constrained_intra=0 / bframes=16 / b_pyramid=2 / b_adapt=2 / b_bias=0 / direct=3 / weightb=1 / open_gop=0 / weightp=2 / keyint=240 / keyint_min=23 / scenecut=40 / intra_refresh=0 / rc_lookahead=60 / rc=2pass / mbtree=1 / bitrate=1597 / ratetol=1.0 / qcomp=0.60 / qpmin=10 / qpmax=51 / qpstep=4 / cplxblur=20.0 / qblur=0.5 / vbv_maxrate=50000 / vbv_bufsize=62500 / nal_hrd=vbr / ip_ratio=1.40 / aq=1:1.00
Язык : English
Default : Да
Forced : Нет
Аудио #1
Идентификатор : 2
Формат : AC-3
Формат/Информация : Audio Coding 3
Расширение режима : CM (complete main)
Параметр Endianness формата : Big
Идентификатор кодека : A_AC3
Продолжительность : 1 ч. 42 м.
Вид битрейта : Постоянный
Битрейт : 448 Кбит/сек
Каналы : 6 каналов
Расположение каналов : Front: L C R, Side: L R, LFE
Частота : 48,0 КГц
Битовая глубина : 16 бит
Метод сжатия : С потерями
Размер потока : 328 Мбайт (16%)
Заголовок : AVO Дмитрий Есарев
Язык : Russian
Default : Да
Forced : Нет
Аудио #2
Идентификатор : 3
Формат : AC-3
Формат/Информация : Audio Coding 3
Расширение режима : CM (complete main)
Параметр Endianness формата : Big
Идентификатор кодека : A_AC3
Продолжительность : 1 ч. 42 м.
Вид битрейта : Постоянный
Битрейт : 448 Кбит/сек
Каналы : 6 каналов
Расположение каналов : Front: L C R, Side: L R, LFE
Частота : 48,0 КГц
Битовая глубина : 16 бит
Метод сжатия : С потерями
Задержка видео : 10 мс.
Размер потока : 328 Мбайт (16%)
Заголовок : MVO
Язык : Russian
Default : Нет
Forced : Нет
Аудио #3
Идентификатор : 4
Формат : AC-3
Формат/Информация : Audio Coding 3
Расширение режима : CM (complete main)
Параметр Endianness формата : Big
Идентификатор кодека : A_AC3
Продолжительность : 1 ч. 42 м.
Вид битрейта : Постоянный
Битрейт : 384 Кбит/сек
Каналы : 6 каналов
Расположение каналов : Front: L C R, Side: L R, LFE
Частота : 48,0 КГц
Битовая глубина : 16 бит
Метод сжатия : С потерями
Размер потока : 281 Мбайт (13%)
Default : Нет
Forced : Нет
Текст
Идентификатор : 5
Формат : UTF-8
Идентификатор кодека : S_TEXT/UTF8
Идентификатор кодека/Информация : UTF-8 Plain Text
Заголовок : SUB
Язык : Russian
Default : Да
Forced : Нет
pb.wtf



Скачать Тормоз через торрент http://i57.fastpic.ru/big/2014/0103/b0/16a488905513cea798bff057399826b0.jpg Скачать фильм Тормоз через торрент бесплантно в хорошем качестве Описание: Всю жизнь Берни не везло. Причем до такой степени, одно из казино Лас-Вегаса наняло его работать «тормозом», распространявшим ... 10 10 8
Info! Золотая раздача, скачанное не засчитывается.
Торрент: Зарегистрирован [2014-01-04 09:07] · скачан: 119 раз
Статус: √ проверено
Размер: 2.06 GB
Как cкачать? Как скачать Тормоз через торрент | UTorrent

28-11-2019 20:33  

Отключить всю рекламу на сайте

    Дорогой пользователь! Огромная просьба, поблагодарите релизера, оцените раздачу и оставьте свои комментарий, если Вы скачали Тормоз через торрент бесплатно! Внесите свою лепту в развитие PiratBit!
    Комментировать посты могут только пользователи прошедшие не сложную регистрацию
    Показать сообщения:    

    Тормоз через торрент
    Скачать бесплатно Тормоз
    Тормоз скачать торрент
    Тормоз смотреть онлайн
    Cкачать фильм Тормоз бесплатно
    Тормоз скачать торрент в хорошем качестве
    Тормоз смотреть онлайн бесплатно в хорошем качестве


    Вы не можете начинать темы
    Вы не можете отвечать на сообщения
    Вы не можете редактировать свои сообщения
    Вы не можете удалять свои сообщения
    Вы не можете голосовать в опросах
    Вы не можете прикреплять файлы к сообщениям
    Вы можете скачивать файлы