1 сезон

1 сезон

iTunes

1

КиноПоиск HD

Кинопоиск HD

iTunes

13

1 сезон

RePack

30

Ultimate

ВАЖНО

ИГРА 18+

pack

RePack

MK11
pack

Легкие деньги

RePack

jed

RePack

fifa19

RePack

RDR2

RePack

NEED FOR SPEED™ PAYBACK

4 сезон

9 сезон

Бесстыжие 9 сезон

Все сериалы

все сериалы на PB.wtf

RePack

FAR CRY 5
  
Magnet ссылка

Звонок / The Ring (Гор Вербински / Gore Verbinski) [2002 г., Ужасы, триллер, детектив, BDRip-AVC] Dub (R5) + Original (Eng) + Sub (rus., eng.) pb.wtf

Звонок через торрент pb.wtf

Размер: 2.18 GB | Добавлен: 7 лет 3 мес. назад | Торрент скачан:377 раз
Скачать  

04-01-2014 10:15 Звонок Скачать торрент  

Звонок / The Ring
Год выпуска: 2002
Страна: США, Япония / DreamWorks SKG, BenderSpink, MacDonald/Parkes Productions
Жанр: Ужасы, триллер, детектив,
Продолжительность: 01:55:18
Перевод: Дубляж
Субтитры: Русские, английские

Режиссер: Гор Вербински / Gore Verbinski



В ролях: Наоми Уоттс, Мартин Хендерсон, Дэвид Дорфман, Брайан Кокс, Джейн Александр, Линдси Фрост, Эмбер Тэмблин, Рейчел Белла, Дэйви Чейз, Шэннон Кокрен,

Описание: Телефонный звонок следует после просмотра некой загадочной видеокассеты, после чего каждый посмотревший ее умирает. Жертве дается лишь одна неделя, а дальше следует неминуемая смерть.
Главная героиня Рэйчел — журналистка, расследует эти страшные события, и случайно кассета попадает к ее сыну, над которым также нависает смертельная угроза. Теперь ей предстоит гонка со смертью в попытке хоть что-то изменить и найти объяснение всему происходящему…

Качество: BDRip-AVC
Формат: MKV
Видео кодек: H.264
Аудио кодек: AC3
Видео: 1060x572 (1,85:1), 23,976 fps, 1815 Кbps, 0.125 bit/pixel
Аудио#1: 48 kHz, AC3 Dolby Digital, 3/2 (L,C,R,l,r) + LFE ch, 448.00 kbps | RUS
Аудио#2: 48 kHz, AC3 Dolby Digital, 3/2 (L,C,R,l,r) + LFE ch, 448.00 kbps | ENG

Релиз группы:
Автор рипа: potroks





Общее
Уникальный идентификатор : 182144387192401010666688015242162462222 (0x8907BBA2959A1DDF90A18D59CA8DDE0E)
Полное имя : Zvonok.2002.DUAL.BDRip.x264.-HELLYWOOD.mkv
Формат : Matroska
Версия формата : Version 4 / Version 2
Размер файла : 2,18 Гбайт
Продолжительность : 1 ч. 55 м.
Общий поток : 2713 Кбит/сек
Название фильма : HELLYWOOD - rip by potroks
Дата кодирования : UTC 2014-01-03 10:46:25
Программа кодирования : mkvmerge v5.9.0 ('On The Loose') built on Dec 15 2012 16:39:58
Библиотека кодирования : libebml v1.3.0 + libmatroska v1.4.0

Видео
Идентификатор : 1
Формат : AVC
Формат/Информация : Advanced Video Codec
Профиль формата : High@L4.1
Параметр CABAC формата : Да
Параметр ReFrames формата : 10 кадров
Идентификатор кодека : V_MPEG4/ISO/AVC
Продолжительность : 1 ч. 55 м.
Битрейт : 1815 Кбит/сек
Ширина : 1060 пикселей
Высота : 572 пикселя
Соотношение сторон : 1,85:1
Режим частоты кадров : Постоянный
Частота кадров : 23,976 кадра/сек
Цветовое пространство : YUV
Субдискретизация насыщенности : 4:2:0
Битовая глубина : 8 бит
Тип развёртки : Прогрессивная
Бит/(Пиксели*Кадры) : 0.125
Размер потока : 1,42 Гбайт (65%)
Заголовок : The Ring
Библиотека кодирования : x264 core 130 r2273 b3065e6
Настройки программы : cabac=1 / ref=10 / deblock=1:-3:-3 / analyse=0x3:0x133 / me=esa / subme=11 / psy=1 / psy_rd=0.98:0.00 / mixed_ref=1 / me_range=48 / chroma_me=1 / trellis=2 / 8x8dct=1 / cqm=0 / deadzone=21,11 / fast_pskip=0 / chroma_qp_offset=-2 / threads=9 / lookahead_threads=8 / sliced_threads=0 / nr=0 / decimate=0 / interlaced=0 / bluray_compat=0 / constrained_intra=0 / bframes=11 / b_pyramid=2 / b_adapt=2 / b_bias=0 / direct=3 / weightb=1 / open_gop=0 / weightp=2 / keyint=250 / keyint_min=23 / scenecut=40 / intra_refresh=0 / rc_lookahead=60 / rc=2pass / mbtree=0 / bitrate=1815 / ratetol=1.0 / qcomp=0.70 / qpmin=0 / qpmax=69 / qpstep=4 / cplxblur=20.0 / qblur=0.5 / vbv_maxrate=20000 / vbv_bufsize=25000 / nal_hrd=none / ip_ratio=1.35 / pb_ratio=1.25 / aq=1:0.90
Язык : English
Default : Да
Forced : Нет

Аудио #1
Идентификатор : 2
Формат : AC-3
Формат/Информация : Audio Coding 3
Расширение режима : CM (complete main)
Параметр Endianness формата : Big
Идентификатор кодека : A_AC3
Продолжительность : 1 ч. 55 м.
Вид битрейта : Постоянный
Битрейт : 448 Кбит/сек
Каналы : 6 каналов
Расположение каналов : Front: L C R, Side: L R, LFE
Частота : 48,0 КГц
Битовая глубина : 16 бит
Метод сжатия : С потерями
Размер потока : 369 Мбайт (17%)
Заголовок : Dub | DD 5.1 @ 448 kbps
Язык : Russian
Default : Да
Forced : Да

Аудио #2
Идентификатор : 3
Формат : AC-3
Формат/Информация : Audio Coding 3
Расширение режима : CM (complete main)
Параметр Endianness формата : Big
Идентификатор кодека : A_AC3
Продолжительность : 1 ч. 55 м.
Вид битрейта : Постоянный
Битрейт : 448 Кбит/сек
Каналы : 6 каналов
Расположение каналов : Front: L C R, Side: L R, LFE
Частота : 48,0 КГц
Битовая глубина : 16 бит
Метод сжатия : С потерями
Размер потока : 369 Мбайт (17%)
Заголовок : Original | DD 5.1 @ 448 kbps
Язык : English
Default : Нет
Forced : Нет

Текст #1
Идентификатор : 4
Формат : UTF-8
Идентификатор кодека : S_TEXT/UTF8
Идентификатор кодека/Информация : UTF-8 Plain Text
Заголовок : v1
Язык : Russian
Default : Нет
Forced : Нет

Текст #2
Идентификатор : 5
Формат : UTF-8
Идентификатор кодека : S_TEXT/UTF8
Идентификатор кодека/Информация : UTF-8 Plain Text
Заголовок : v2
Язык : Russian
Default : Нет
Forced : Нет

Текст #3
Идентификатор : 6
Формат : UTF-8
Идентификатор кодека : S_TEXT/UTF8
Идентификатор кодека/Информация : UTF-8 Plain Text
Язык : English
Default : Нет
Forced : Нет

Меню
00:00:00.000 : en:(01)00:00:00:000
00:07:32.911 : en:(02)00:07:32:911
00:12:39.174 : en:(03)00:12:39:174
00:15:36.561 : en:(04)00:15:36:561
00:21:54.939 : en:(05)00:21:54:939
00:23:42.503 : en:(06)00:23:42:503
00:26:47.605 : en:(07)00:26:47:605
00:32:03.587 : en:(08)00:32:03:587
00:37:14.106 : en:(09)00:37:14:106
00:39:21.858 : en:(10)00:39:21:858
00:42:32.340 : en:(11)00:42:32:340
00:47:26.844 : en:(12)00:47:26:844
00:49:19.373 : en:(13)00:49:19:373
00:54:37.106 : en:(14)00:54:37:106
00:58:46.106 : en:(15)00:58:46:106
01:00:55.025 : en:(16)01:00:55:025
01:08:55.590 : en:(17)01:08:55:590
01:13:47.381 : en:(18)01:13:47:381
01:20:35.997 : en:(19)01:20:35:997
01:23:45.395 : en:(20)01:23:45:395
01:38:01.876 : en:(21)01:38:01:876
01:44:13.581 : en:(22)01:44:13:581
01:47:06.420 : en:(23)01:47:06:420

pb.wtf



Скачать Звонок через торрент http://i59.fastpic.ru/big/2014/0104/b8/7a01c0fa6a9fc5ce618b41befe1a8bb8.png Скачать фильм Звонок через торрент бесплантно в хорошем качестве Описание: Телефонный звонок следует после просмотра некой загадочной видеокассеты, после чего каждый посмотревший ее умирает. Жертве дается ... 10 10 6
Info! Золотая раздача, скачанное не засчитывается.
Торрент: Зарегистрирован [2014-01-04 10:15] · скачан: 377 раз
Статус: √ проверено
Размер: 2.18 GB
Как cкачать? Как скачать Звонок через торрент | UTorrent

% Раздел Тема Автор DL S | L
Фильмы (Blu-ray, BD-Remux, HDDVD) [ 39.53 GB ] Звонок / The Ring [2002 Blu-Ray Remux 1080p] DUB DVO 2xAVO Леонид Ильич Скачать
1 | 0
Фильмы (Blu-ray, BD-Remux, HDDVD) [ 39.53 GB ] Звонок / The Ring [2002 BD Remux ] Бумер Скачать
1 | 0
Фильмы [HD 720p, 1080p] (Хороший звук DUB, MVO) [ 6.43 GB ] Звонок / The Ring [2002 BDRip 720p by msltel] DUB MVO 2 x AVO msltel Скачать
1 | 0
Фильмы [HD 720p, 1080p] (Хороший звук DUB, MVO) [ 17.49 GB ] Звонок / The Ring [2002 BDRip 1080p by msltel] DUB MVO 2 x AVO msltel Скачать
1 | 0
Фильмы 2001-2005 [ 4.02 GB ] Звонок / The Ring [2002 BDRip AVC by msltel] DUB MVO 2 x AVO msltel Скачать
1 | 0
Фильмы (WEB-DL 720p, 1080p) [ 7.94 GB ] Звонок 2 / The Ring Two [2005 HDTVRip 1080p ] Newton5 Скачать
1 | 0
Фильмы [HD 720p, 1080p] (Хороший звук DUB, MVO) [ 7.95 GB ] Звонок / The Ring [2002 BDRip 1080p] DUB DVO 2xAVO _denis_100 Скачать
1 | 0

28-11-2019 20:33  

Отключить всю рекламу на сайте

    Дорогой пользователь! Огромная просьба, поблагодарите релизера, оцените раздачу и оставьте свои комментарий, если Вы скачали Звонок через торрент бесплатно! Внесите свою лепту в развитие PiratBit!
    Комментировать посты могут только пользователи прошедшие не сложную регистрацию
    Показать сообщения:    

    Звонок через торрент
    Скачать бесплатно Звонок
    Звонок скачать торрент
    Звонок смотреть онлайн
    Cкачать фильм Звонок бесплатно
    Звонок скачать торрент в хорошем качестве
    Звонок смотреть онлайн бесплатно в хорошем качестве


    Вы не можете начинать темы
    Вы не можете отвечать на сообщения
    Вы не можете редактировать свои сообщения
    Вы не можете удалять свои сообщения
    Вы не можете голосовать в опросах
    Вы не можете прикреплять файлы к сообщениям
    Вы можете скачивать файлы