Ссылка на приватное зеркало нашего сайта всего за 1$. Внимание количество ограничено!!!

2 сезон

iTunes

1 сезон

1

iTunes

iTunes

iTunes

1 сезон

RePack

30

ИГРА 18+

pack

ВАЖНО

!!Акция!!

Alien_RageХит недели

RePack

MK11
pack

Забери бонус

RePack

jed

!!Акция!!

Alien_Rage

RePack

fifa19

RePack

Assassins Creed: Odyssey

RePack

NEED FOR SPEED™ PAYBACK

4 сезон

9 сезон

Бесстыжие 9 сезон

Все сериалы

все сериалы на PB.wtf

RePack

FAR CRY 5
  

Бесстрашный / Fearless (Питер Уир) [1993 г., драма, BDRip 720p, Профессиональный многоголосый] |MVO, AVO| pb.wtf

Бесстрашный через торрент pb.wtf

Размер: 5.33 GB | Добавлен: 6 лет 9 мес. назад | Торрент скачан:23 раза
Скачать  

04-01-2014 15:50 Бесстрашный Скачать торрент  

Бесстрашный / Fearless

Год выпуска: 1993
Страна: США
Жанр: драма
Продолжительность: 02:02:03
Перевод: Профессиональный многоголосый, Авторский - Андрей Дольский
Субтитры: English, Russian

Режиссер: Питер Уир
Продюссер: Уильям С. Бисли, Алан Б. Кертис, Робин Форман
Сценарий: Рафаэль Иглесиас

Бюджет: $6 995 302
Премьера в мире: 15 октября 1993

IMDB 7.10 (14 442)


В ролях: Джефф Бриджес, Рози Перес, Изабелла Росселлини, Том Халс, Джон Туртурро, Бенисио Дель Торо, Дирдри О’Коннелл, Джон де Ланси, Спенсер Врумэн, Дэниел Черни

Описание: Макс Клейн выжил в ужасной авиакатастрофе, но это потрясение изменило всю его жизнь. Он больше не испытывает страха смерти и считает себя неуязвимым, отстранясь при этом от семьи и друзей.Но, следуя совету психиатра, Макс начинает общаться с убитой горем Карлой, которая также выжила в катастрофе, но потеряла в ней маленького сына. Быть может, если Максу удастся помочь Карле, он поможет и себе самому...

Качество: BDRip 720p
Формат: MKV
Видео кодек: AVC
Аудио кодек: AC3
Видео: MPEG-4 AVC, 5616 Kбит/с, 1280x720 / 23.976 fps / High Profile 4.1 / 0.254
Аудио#1: Russian AC3 2.0 48 kHz 192 kbps – закадровый (многоголосый, ТК "Россия")
Аудио#2: Russian AC3 2.0 48 kHz 128 kbps – закадровый (одноголосый авторский, Андрей Дольский)
Аудио#3: English AC3 2.0 48 kHz 192 kbps
General
Unique ID : 206314408980349215229909084138500216901 (0x9B36B5B6DAA12341847936AE6C135845)
Complete name : /etc/seedbox/home/eruslannr/data/Besstrashnyj.1993.x264.BDRip.720p.mkv
Format : Matroska
Format version : Version 4 / Version 2
File size : 5.33 GiB
Duration : 2h 2mn
Overall bit rate : 6 253 Kbps
Movie name : Бесстрашный / Fearless / 1993
Encoded date : UTC 2013-12-26 02:39:48
Writing application : mkvmerge v6.6.0 ('The Edge Of The In Between') built on Dec 1 2013 17:55:00
Writing library : libebml v1.3.0 + libmatroska v1.4.1

Video
ID : 1
Format : AVC
Format/Info : Advanced Video Codec
Format profile : High@L4.1
Format settings, CABAC : Yes
Format settings, ReFrames : 9 frames
Codec ID : V_MPEG4/ISO/AVC
Duration : 2h 2mn
Bit rate : 5 616 Kbps
Width : 1 280 pixels
Height : 720 pixels
Display aspect ratio : 16:9
Frame rate mode : Constant
Frame rate : 23.976 fps
Color space : YUV
Chroma subsampling : 4:2:0
Bit depth : 8 bits
Scan type : Progressive
Bits/(Pixel*Frame) : 0.254
Stream size : 4.79 GiB (90%)
Writing library : x264 core 138 r2358 9e941d1
Encoding settings : cabac=1 / ref=9 / deblock=1:-1:-1 / analyse=0x3:0x113 / me=umh / subme=10 / psy=1 / psy_rd=1.00:0.15 / mixed_ref=1 / me_range=24 / chroma_me=1 / trellis=2 / 8x8dct=1 / cqm=0 / deadzone=21,11 / fast_pskip=0 / chroma_qp_offset=-3 / threads=6 / lookahead_threads=1 / sliced_threads=0 / nr=0 / decimate=1 / interlaced=0 / bluray_compat=0 / constrained_intra=0 / bframes=8 / b_pyramid=2 / b_adapt=2 / b_bias=0 / direct=1 / weightb=1 / open_gop=0 / weightp=2 / keyint=230 / keyint_min=23 / scenecut=40 / intra_refresh=0 / rc_lookahead=40 / rc=crf / mbtree=0 / crf=19.5 / qcomp=0.60 / qpmin=0 / qpmax=69 / qpstep=4 / vbv_maxrate=50000 / vbv_bufsize=62500 / crf_max=0.0 / nal_hrd=none / ip_ratio=1.40 / pb_ratio=1.30 / aq=1:1.00
Language : English
Default : Yes
Forced : No

Audio #1
ID : 2
Format : AC-3
Format/Info : Audio Coding 3
Mode extension : CM (complete main)
Format settings, Endianness : Big
Codec ID : A_AC3
Duration : 2h 2mn
Bit rate mode : Constant
Bit rate : 192 Kbps
Channel count : 2 channels
Channel positions : Front: L R
Sampling rate : 48.0 KHz
Bit depth : 16 bits
Compression mode : Lossy
Stream size : 168 MiB (3%)
Title : MVO ("Россия")
Language : Russian
Default : Yes
Forced : No

Audio #2
ID : 3
Format : AC-3
Format/Info : Audio Coding 3
Mode extension : CM (complete main)
Format settings, Endianness : Big
Codec ID : A_AC3
Duration : 2h 2mn
Bit rate mode : Constant
Bit rate : 128 Kbps
Channel count : 2 channels
Channel positions : Front: L R
Sampling rate : 48.0 KHz
Bit depth : 16 bits
Compression mode : Lossy
Stream size : 112 MiB (2%)
Title : AVO (Андрей Дольский)
Language : Russian
Default : No
Forced : No

Audio #3
ID : 4
Format : AC-3
Format/Info : Audio Coding 3
Mode extension : CM (complete main)
Format settings, Endianness : Big
Codec ID : A_AC3
Duration : 2h 2mn
Bit rate mode : Constant
Bit rate : 192 Kbps
Channel count : 2 channels
Channel positions : Front: L R
Sampling rate : 48.0 KHz
Bit depth : 16 bits
Compression mode : Lossy
Stream size : 168 MiB (3%)
Title : Original
Language : English
Default : No
Forced : No

Text #1
ID : 5
Format : UTF-8
Codec ID : S_TEXT/UTF8
Codec ID/Info : UTF-8 Plain Text
Title : русский
Language : Russian
Default : No
Forced : No

Text #2
ID : 6
Format : UTF-8
Codec ID : S_TEXT/UTF8
Codec ID/Info : UTF-8 Plain Text
Title : английский (для слабослышащих)
Default : No
Forced : No
pb.wtf



Скачать Бесстрашный через торрент http://i6.imageban.ru/out/2014/01/04/5cde85e3e5f3e870ff109e3f7fd5438c.png Скачать фильм Бесстрашный через торрент бесплантно в хорошем качестве Описание: Макс Клейн выжил в ужасной авиакатастрофе, но это потрясение изменило всю его жизнь. Он больше не испытывает страха смерти и ... 10 10 4
× Info от релизера! Бесстрашный / Fearless
Info! Золотая раздача, скачанное не засчитывается.
Торрент: Зарегистрирован [2014-01-04 15:50] · скачан: 23 раз
Статус: √ проверено
Размер: 5.33 GB
Как cкачать? Как скачать Бесстрашный через торрент | qTorrent

28-11-2019 20:33  

Отключить всю рекламу на сайте

    Дорогой пользователь! Огромная просьба, поблагодарите релизера, оцените раздачу и оставьте свои комментарий, если Вы скачали Бесстрашный через торрент бесплатно! Внесите свою лепту в развитие PiratBit!
    Комментировать посты могут только пользователи прошедшие не сложную регистрацию
    Показать сообщения:    

    Бесстрашный через торрент
    Скачать бесплатно Бесстрашный
    Бесстрашный скачать торрент
    Бесстрашный смотреть онлайн
    Cкачать фильм Бесстрашный бесплатно
    Бесстрашный скачать торрент в хорошем качестве
    Бесстрашный смотреть онлайн бесплатно в хорошем качестве


    Вы не можете начинать темы
    Вы не можете отвечать на сообщения
    Вы не можете редактировать свои сообщения
    Вы не можете удалять свои сообщения
    Вы не можете голосовать в опросах
    Вы не можете прикреплять файлы к сообщениям
    Вы можете скачивать файлы